В плену песков / Далеко отсюда / Сквозь Калахари / A Far Off Place (Микаэл Саломон / Mikael Salomon) [1993, США, драма, приключения, семейный, WEB-DL 720p] 3х MVO + AVO + VO + Sub Rus, Eng + Original Eng

Ответить на тему
 
Автор Сообщение

user ®

Стаж: 7 лет 7 месяцев

Сообщений: 20008

Пост Пост: #1 от 22-Сен-2015 18:03

[Цитировать]

В плену песков / Далеко отсюда / Сквозь Калахари / A Far Off Place
Страна: США
Студия: Walt Disney Pictures и другие
Жанр: драма, приключения, семейный
Год выпуска: 1993
Продолжительность: 01:47:26
Перевод: Профессиональный (многоголосый закадровый) Видеосервис
Перевод 2: Профессиональный (многоголосый закадровый) ОРТ / iTunes
Перевод 3: Профессиональный (многоголосый закадровый) ДТВ
Перевод 4: Авторский (одноголосый закадровый) Л.Володарский
Перевод 5: Одноголосый закадровый Саня Белый
Cубтитры: русские, английские
Оригинальная аудиодорожка: английский
Режиссер: Микаэл Саломон / Mikael Salomon
В ролях: Риз Уизерспун, Итэн Эмбри, Джек Томпсон, Сарел Бок, Роберт Джон Бёрк, Патриция Кэлембер, Дэниэл Джерролл, Максимилиан Шелл, Майлз Андерсон, Фиделис Чеза
Описание: Нинни и Гарри — единственные свидетели убийства на отдаленной ферме в затерянной саванне. Теперь по их следам идут коварные убийцы. Единственный способ спастись в этой ситуации — пройти 2000 километров по бескрайней пустыне Калахари.
Доп. информация: За дорожку Видеосервиса спасибо amplified, за дорожку ДТВ спасибо miha2154, за Володарского благодарность alenavova, за Саню Белого - Eazin, за iTunes она же ОРТ спасибо HDclub. Перевод субтитров Pacific.
Sample
Тип релиза: WEB-DL 720p
Контейнер: MKV
Видео: MPEG4 AVC Video, H264, 16:9, 1280x694, 23.976 fps, 3946 kbps
Аудио: Russian (AC3, 2 ch, 192 kbps, 16 bits, 48.0 KHz) - Видеосервис
Аудио 2: Russian (AAC, 2 ch, 160 kbps, 16 bits, 48.0 KHz) - ОРТ / iTunes
Аудио 3: Russian (AC3, 2 ch, 192 kbps, 16 bits, 48.0 KHz) - ДТВ
Аудио 4: Russian (AC3, 2 ch, 192 kbps, 16 bits, 48.0 KHz) - Л.Володарский
Аудио 5: Russian (AC3, 2 ch, 192 kbps, 16 bits, 48.0 KHz) - Саня Белый
Аудио 6: English (AC3, 2 ch, 192 kbps, 16 bits, 48.0 KHz) - оригинал
Формат субтитров: softsub (SRT)

MediaInfo
General
Unique ID : 224447966239162661463742826709822287787 (0xA8DB1B1D28B7D877AAFF7968839D2FAB)
Complete name : E:\A Far Off Place 1993 WEB-DL 720p.mkv
Format : Matroska
Format version : Version 4 / Version 2
File size : 3.85 GiB
Duration : 1h 47mn
Overall bit rate : 5 127 Kbps
Encoded date : UTC 2015-09-21 10:10:28
Writing application : mkvmerge v6.1.0 ('Old Devil') built on Mar 2 2013 14:32:37
Writing library : libebml v1.3.0 + libmatroska v1.4.0
Video
ID : 1
Format : AVC
Format/Info : Advanced Video Codec
Format profile : High@L3.1
Format settings, CABAC : No
Format settings, ReFrames : 2 frames
Codec ID : V_MPEG4/ISO/AVC
Duration : 1h 47mn
Width : 1 280 pixels
Height : 694 pixels
Display aspect ratio : 1.85:1
Frame rate mode : Constant
Frame rate : 23.976 fps
Color space : YUV
Chroma subsampling : 4:2:0
Bit depth : 8 bits
Scan type : Progressive
Language : English
Default : Yes
Forced : No
Color primaries : BT.709
Transfer characteristics : BT.709
Matrix coefficients : BT.709
Audio #1
ID : 2
Format : AC-3
Format/Info : Audio Coding 3
Mode extension : CM (complete main)
Format settings, Endianness : Big
Codec ID : A_AC3
Duration : 1h 47mn
Bit rate mode : Constant
Bit rate : 192 Kbps
Channel count : 2 channels
Channel positions : Front: L R
Sampling rate : 48.0 KHz
Bit depth : 16 bits
Compression mode : Lossy
Stream size : 148 MiB (4%)
Title : Видеосервис
Language : Russian
Default : Yes
Forced : No
Audio #2
ID : 3
Format : AAC
Format/Info : Advanced Audio Codec
Format profile : LC
Codec ID : A_AAC
Duration : 1h 47mn
Channel count : 2 channels
Channel positions : Front: L R
Sampling rate : 48.0 KHz
Compression mode : Lossy
Title : ОРТ / iTunes
Language : Russian
Default : No
Forced : No
Audio #3
ID : 4
Format : AC-3
Format/Info : Audio Coding 3
Mode extension : CM (complete main)
Format settings, Endianness : Big
Codec ID : A_AC3
Duration : 1h 47mn
Bit rate mode : Constant
Bit rate : 192 Kbps
Channel count : 2 channels
Channel positions : Front: L R
Sampling rate : 48.0 KHz
Bit depth : 16 bits
Compression mode : Lossy
Stream size : 148 MiB (4%)
Title : ДТВ
Language : Russian
Default : No
Forced : No
Audio #4
ID : 5
Format : AC-3
Format/Info : Audio Coding 3
Mode extension : CM (complete main)
Format settings, Endianness : Big
Codec ID : A_AC3
Duration : 1h 47mn
Bit rate mode : Constant
Bit rate : 192 Kbps
Channel count : 2 channels
Channel positions : Front: L R
Sampling rate : 48.0 KHz
Bit depth : 16 bits
Compression mode : Lossy
Stream size : 148 MiB (4%)
Title : Л. Володарский
Language : Russian
Default : No
Forced : No
Audio #5
ID : 6
Format : AC-3
Format/Info : Audio Coding 3
Mode extension : CM (complete main)
Format settings, Endianness : Big
Codec ID : A_AC3
Duration : 1h 47mn
Bit rate mode : Constant
Bit rate : 192 Kbps
Channel count : 2 channels
Channel positions : Front: L R
Sampling rate : 48.0 KHz
Bit depth : 16 bits
Compression mode : Lossy
Stream size : 148 MiB (4%)
Title : Саня Белый
Language : Russian
Default : No
Forced : No
Audio #6
ID : 7
Format : AC-3
Format/Info : Audio Coding 3
Mode extension : CM (complete main)
Format settings, Endianness : Big
Codec ID : A_AC3
Duration : 1h 47mn
Bit rate mode : Constant
Bit rate : 192 Kbps
Channel count : 2 channels
Channel positions : Front: L R
Sampling rate : 48.0 KHz
Bit depth : 16 bits
Compression mode : Lossy
Stream size : 148 MiB (4%)
Language : English
Default : No
Forced : No
Text #1
ID : 8
Format : UTF-8
Codec ID : S_TEXT/UTF8
Codec ID/Info : UTF-8 Plain Text
Language : Russian
Default : No
Forced : No
Text #2
ID : 9
Format : UTF-8
Codec ID : S_TEXT/UTF8
Codec ID/Info : UTF-8 Plain Text
Language : English
Default : No
Forced : No
Menu
00:00:00.000 : en:1. Opening Credits/"Bones Dry and Boring"
00:16:32.000 : en:2. Sneaking Out
00:23:44.000 : en:3. "They Killed Everybody!"
00:34:32.000 : en:4. Follow the Wind
00:44:12.000 : en:5. The Kalahari
00:57:06.000 : en:6. Survival
01:06:55.000 : en:7. Harry the Hunter
01:17:40.000 : en:8. A Growing Peril
01:32:20.000 : en:9. The End of the Desert
01:34:23.000 : en:10. John Ricketts
01:39:46.000 : en:11. "Don't Look Back"/End Credits
Скриншоты
Скачать

Скачать торрент!

Как скачивать? · Что такое торрент? · Рейтинг и ограничения

Сайт не распространяет и не хранит электронные версии произведений, а лишь предоставляет доступ к создаваемому пользователями каталогу ссылок на торрент-файлы, которые содержат только списки хеш-сумм

[Профиль] [ЛС]
Показать сообщения:    
Ответить на тему

Текущее время: Сегодня 16:12

Часовой пояс: GMT + 4



Вы не можете начинать темы
Вы не можете отвечать на сообщения
Вы не можете редактировать свои сообщения
Вы не можете удалять свои сообщения
Вы не можете голосовать в опросах
Вы не можете прикреплять файлы к сообщениям
Вы не можете скачивать файлы