Истинные цвета / True Colors (Херберт Росс / Herbert Ross) [1991, США, драма, WEB-DL 720p] 2x DVO (Paramount channel, ТВ Центр) + Sub Eng + Original Ger

Ответить на тему
 
Автор Сообщение

user ®

Стаж: 7 лет 7 месяцев

Сообщений: 20008

Пост Пост: #1 от 22-Сен-2015 18:03

[Цитировать]

Истинные цвета / True Colors
Страна: США
Студия: Paramount Pictures
Жанр: драма
Год выпуска: 1991
Продолжительность: драма
Перевод 1: Профессиональный (двухголосый закадровый) Paramount channel
Перевод 2: Профессиональный (двухголосый закадровый) ТВ Центр
Cубтитры: английские
Оригинальная аудиодорожка: немецкий
Режиссер: Херберт Росс / Herbert Ross
В ролях: Джон Кьюсак, Джеймс Спэйдер, Имоджен Стаббс, Мэнди Пэтинкин, Ричард Уидмарк, Дина Мэрилл, Филип Боско, Пол Гилфойл, Брэд Салливан, Расселл Дэннис Бэйкер
Описание: Два друга, студенты юридического факультета университета, наперегонки делают карьеру, достигая вашингтонских коридоров власти. Питер, выходец из простой семьи, добивается положения конгрессмена, предавая всех, кто доверял ему, включая друга-идеалиста Тима. Тим, будучи голубых кровей, конечно же, никогда не обманет друга. Разве только чтобы отомстить за предательство.
Доп. информация: Сохранены оригинальные главы.


Сэмпл: http://sendfile.su/1156576
Тип релиза: WEB-DL 720p
Контейнер: MKV
Видео: 1278x720 at 23.976 fps, MPEG-4 AVC, ~4000 kbps avg
Аудио 1: RUS | 48 kHz, AС3, 2/0 (L,R) ch, ~192.00 kbps avg | двухголосый закадровый, Paramount channel
Аудио 2: RUS | 48 kHz, AC3, 2/0 (L,R) ch, ~192.00 kbps avg | двухголосый закадровый, ТВ Центр
Аудио 3: ENG | 48 kHz, AAC, 2/0 (L,R) ch, ~160.00 kbps avg
MediaInfo
General
Unique ID : 237834648411465324189018750455998881829 (0xB2ED49809EE1DB77A3B09D40FD84A025)
Complete name : D:\True Colors.1991.720p.WEB-DL.2xRus.Eng.HDCLUB.mkv
Format : Matroska
Format version : Version 4 / Version 2
File size : 3.55 GiB
Duration : 1h 50mn
Overall bit rate : 4 609 Kbps
Encoded date : UTC 2015-02-17 15:32:17
Writing application : mkvmerge v7.6.0 ('Garden of Dreams') 32bit built on Feb 8 2015 12:51:39
Writing library : libebml v1.3.1 + libmatroska v1.4.2
DURATION : 01:46:58.644000000
NUMBER_OF_FRAMES : 3801
NUMBER_OF_BYTES : 147099
_STATISTICS_WRITING_APP : mkvmerge v7.6.0 ('Garden of Dreams') 32bit built on Feb 8 2015 12:51:39
_STATISTICS_WRITING_DATE_UTC : 2015-02-17 15:32:17
_STATISTICS_TAGS : BPS DURATION NUMBER_OF_FRAMES NUMBER_OF_BYTES
Video
ID : 1
Format : AVC
Format/Info : Advanced Video Codec
Format profile : High@L3.1
Format settings, CABAC : No
Format settings, ReFrames : 2 frames
Codec ID : V_MPEG4/ISO/AVC
Duration : 1h 50mn
Width : 1 278 pixels
Height : 720 pixels
Display aspect ratio : 16:9
Frame rate mode : Constant
Frame rate : 23.976 fps
Color space : YUV
Chroma subsampling : 4:2:0
Bit depth : 8 bits
Scan type : Progressive
Language : English
Default : Yes
Forced : No
Color range : Limited
Color primaries : BT.709
Transfer characteristics : BT.709
Matrix coefficients : BT.709
Audio #1
ID : 2
Format : AC-3
Format/Info : Audio Coding 3
Mode extension : CM (complete main)
Format settings, Endianness : Big
Codec ID : A_AC3
Duration : 1h 50mn
Bit rate mode : Constant
Bit rate : 192 Kbps
Channel(s) : 2 channels
Channel positions : Front: L R
Sampling rate : 48.0 KHz
Compression mode : Lossy
Stream size : 151 MiB (4%)
Title : Многоголосый закадровый - paramount channel
Language : Russian
Default : Yes
Forced : No
Audio #2
ID : 3
Format : AC-3
Format/Info : Audio Coding 3
Mode extension : CM (complete main)
Format settings, Endianness : Big
Codec ID : A_AC3
Duration : 1h 50mn
Bit rate mode : Constant
Bit rate : 192 Kbps
Channel(s) : 2 channels
Channel positions : Front: L R
Sampling rate : 48.0 KHz
Compression mode : Lossy
Stream size : 151 MiB (4%)
Title : Многоголосый закадровый ТВ ЦЕНТР
Language : Russian
Default : No
Forced : No
Audio #3
ID : 4
Format : AAC
Format/Info : Advanced Audio Codec
Format profile : HE-AAC / LC
Codec ID : A_AAC
Duration : 1h 50mn
Channel(s) : 2 channels
Channel positions : Front: L R
Sampling rate : 96.0 KHz / 48.0 KHz
Compression mode : Lossy
Title : Original
Language : English
Default : No
Forced : No
Text
ID : 5
Format : UTF-8
Codec ID : S_TEXT/UTF8
Codec ID/Info : UTF-8 Plain Text
Title : CC
Language : English
Default : No
Forced : No
Menu
00:00:00.000 : en:First Impressions
00:11:22.000 : en:Christmas Break
00:20:16.000 : en:New Year's Resolution
00:23:24.000 : en:One Drink In Bridgeport
00:29:28.000 : en:Loading The Dance Card
00:38:08.000 : en:D.C. Campus
00:49:57.000 : en:Absolved And Acquitted
00:54:46.000 : en:A Friend In Justice
01:01:31.000 : en:Playing Hardball
01:07:50.000 : en:Hidden Agendas
01:18:49.000 : en:Undercover
01:28:37.000 : en:"Say Cheese"
01:36:56.000 : en:The Question Of Trust
01:44:21.000 : en:Settling The Bet
Скриншоты
Скачать

Скачать торрент!

Как скачивать? · Что такое торрент? · Рейтинг и ограничения

Сайт не распространяет и не хранит электронные версии произведений, а лишь предоставляет доступ к создаваемому пользователями каталогу ссылок на торрент-файлы, которые содержат только списки хеш-сумм

[Профиль] [ЛС]
Показать сообщения:    
Ответить на тему

Текущее время: Сегодня 06:30

Часовой пояс: GMT + 4



Вы не можете начинать темы
Вы не можете отвечать на сообщения
Вы не можете редактировать свои сообщения
Вы не можете удалять свои сообщения
Вы не можете голосовать в опросах
Вы не можете прикреплять файлы к сообщениям
Вы не можете скачивать файлы