Мужчина по вызову / Deuce Bigalow: Male Gigolo (Майк Митчелл / Mike Mitchell) [1999, США, комедия, WEB-DL 720p] 3x MVO + AVO +Ukr + Sub Rus, Eng + Original Eng

Ответить на тему
 
Автор Сообщение

user ®

Стаж: 7 лет 7 месяцев

Сообщений: 20008

Пост Пост: #1 от 22-Сен-2015 18:03

[Цитировать]

Мужчина по вызову / Deuce Bigalow: Male Gigolo
Страна: США
Студия: Happy Madison Productions, Out of the Blue... Entertainment, Touchstone Pictures
Жанр: комедия
Год выпуска: 1999
Продолжительность: 01:28:37
Перевод 1: Профессиональный (многоголосый закадровый) iTunes, 1 канал
Перевод 2: Профессиональный (многоголосый закадровый) R5
Перевод 3: Профессиональный (многоголосый закадровый) Видеосервис
Перевод 4: Авторский (одноголосый закадровый) Санаев
Cубтитры: Russian (Full, R5), English (Full)
Оригинальная аудиодорожка: английский
Режиссер: Майк Митчелл / Mike Mitchell
В ролях: Роб Шнайдер, Уильям Форсайт, Эдди Гриффин, Ария Барейкис, Одед Фер, Гэйл О’Грэйди, Ричард Рили, Жаклин Обрадорс, Биг Бой, Эми Полер
Описание: Дьюс Бигалоу всегда был уверен в том, что создан для большего, чем просто чистить аквариумы. И вот судьба делает крутой поворот - Дьюс становится мужчиной по вызову.
Но его клиентки не простые женщины, а такие, к которым нормальный мужчина никогда не ляжет в постель. Находясь в ситуации, когда нельзя отказать, Дьюс принимается ублажать этих весьма «необычных» женщин...
Доп. информация: Сохранены и подписаны главы. Вебка из русского iTunes. Дорожка Видеосервиса из раздачи alenavova.


Сэмпл: http://sendfile.su/1156603
Тип релиза: WEB-DL 720p
Контейнер: MKV
Видео: 1280x692 at 23.976 fps, MPEG-4 AVC, ~4000 kbps avg
Аудио 1: RUS | 48 kHz, AAC, 2/0 (L,R) ch, ~124.00 kbps avg | Многоголосый закадровый, iTunes, 1 канал
Аудио 2: RUS | 48 kHz, AC3, 2/0 (L,R) ch, ~192.00 kbps avg | Многоголосый закадровый, R5
Аудио 3: RUS | 48 kHz, AC3, 2/0 (L,R) ch, ~192.00 kbps avg | Многоголосый закадровый, Видеосервис
Аудио 4: RUS | 48 kHz, AC3, 3/2 (L,C,R,l,r) + LFE ch, ~384.00 kbps avg | Одноголосый закадровый, Санаев
Аудио 5: UKR | 48 kHz, AC3, 2/0 (L,R) ch, ~192.00 kbps avg | Многоголосый закадровый, ТРК Украина
Аудио 6: ENG | 48 kHz, AC3, 3/2 (L,C,R,l,r) + LFE ch, ~384.00 kbps avg | Оригинал, iTunes
MediaInfo
General
Unique ID : 201927645851718591083149261576492193191 (0x97E9D997EE876C01BDC6B9932C3A95A7)
Complete name : D:\Deuce.Bigalow.Male.Gigolo.1999.720p.WEB-DL.4xRus.Ukr.Eng.HDCLUB.mkv
Format : Matroska
Format version : Version 4 / Version 2
File size : 3.43 GiB
Duration : 1h 28mn
Overall bit rate : 5 537 Kbps
Movie name : Release by spartanec163
Encoded date : UTC 2015-03-08 14:27:45
Writing application : mkvmerge v7.4.0 ('Circles') 64bit built on Dec 12 2014 12:19:56
Writing library : libebml v1.3.0 + libmatroska v1.4.1
_STATISTICS_WRITING_APP : mkvmerge v7.4.0 ('Circles') 64bit built on Dec 12 2014 12:19:56
_STATISTICS_WRITING_DATE_UTC : 2015-03-08 14:27:45
_STATISTICS_TAGS : BPS DURATION NUMBER_OF_FRAMES NUMBER_OF_BYTES
DURATION : 01:28:30.304000000
NUMBER_OF_FRAMES : 165947
NUMBER_OF_BYTES : 127447296
Video
ID : 1
Format : AVC
Format/Info : Advanced Video Codec
Format profile : High@L3.1
Format settings, CABAC : No
Format settings, ReFrames : 2 frames
Codec ID : V_MPEG4/ISO/AVC
Duration : 1h 28mn
Width : 1 280 pixels
Height : 692 pixels
Display aspect ratio : 1.85:1
Frame rate mode : Constant
Frame rate : 23.976 fps
Color space : YUV
Chroma subsampling : 4:2:0
Bit depth : 8 bits
Scan type : Progressive
Title : WEB-DL 720p (Rus iTunes)
Language : English
Default : Yes
Forced : No
Color range : Limited
Color primaries : BT.709
Transfer characteristics : BT.709
Matrix coefficients : BT.709
Audio #1
ID : 2
Format : AAC
Format/Info : Advanced Audio Codec
Format profile : LC
Codec ID : A_AAC
Duration : 1h 28mn
Channel(s) : 2 channels
Channel positions : Front: L R
Sampling rate : 48.0 KHz
Compression mode : Lossy
Title : AAC 2.0 124Kbps (Профессиональный, многоголосый - 1 канал, iTunes)
Language : Russian
Default : Yes
Forced : No
Audio #2
ID : 3
Format : AC-3
Format/Info : Audio Coding 3
Mode extension : CM (complete main)
Format settings, Endianness : Big
Codec ID : A_AC3
Duration : 1h 28mn
Bit rate mode : Constant
Bit rate : 192 Kbps
Channel(s) : 2 channels
Channel positions : Front: L R
Sampling rate : 48.0 KHz
Compression mode : Lossy
Stream size : 122 MiB (3%)
Title : AC3 2.0 192Kbps (Профессиональный, многоголосый - R5)
Language : Russian
Default : No
Forced : No
Audio #3
ID : 4
Format : AC-3
Format/Info : Audio Coding 3
Mode extension : CM (complete main)
Format settings, Endianness : Big
Codec ID : A_AC3
Duration : 1h 28mn
Bit rate mode : Constant
Bit rate : 192 Kbps
Channel(s) : 2 channels
Channel positions : Front: L R
Sampling rate : 48.0 KHz
Compression mode : Lossy
Stream size : 122 MiB (3%)
Title : AC3 2.0 192Kbps (Профессиональный, многоголосый - Видеосервис)
Language : Russian
Default : No
Forced : No
Audio #4
ID : 5
Format : AC-3
Format/Info : Audio Coding 3
Mode extension : CM (complete main)
Format settings, Endianness : Big
Codec ID : A_AC3
Duration : 1h 28mn
Bit rate mode : Constant
Bit rate : 384 Kbps
Channel(s) : 6 channels
Channel positions : Front: L C R, Side: L R, LFE
Sampling rate : 48.0 KHz
Compression mode : Lossy
Stream size : 243 MiB (7%)
Title : AC3 5.1 384Kbps (Авторский, одноголосый - Санаев)
Language : Russian
Default : No
Forced : No
Audio #5
ID : 6
Format : AC-3
Format/Info : Audio Coding 3
Mode extension : CM (complete main)
Format settings, Endianness : Big
Codec ID : A_AC3
Duration : 1h 28mn
Bit rate mode : Constant
Bit rate : 192 Kbps
Channel(s) : 2 channels
Channel positions : Front: L R
Sampling rate : 48.0 KHz
Compression mode : Lossy
Stream size : 122 MiB (3%)
Title : AC3 2.0 192Kbps (Профессиональный, многоголосый - ТРК Украина)
Language : Ukrainian
Default : No
Forced : No
Audio #6
ID : 7
Format : AC-3
Format/Info : Audio Coding 3
Mode extension : CM (complete main)
Format settings, Endianness : Big
Codec ID : A_AC3
Duration : 1h 28mn
Bit rate mode : Constant
Bit rate : 384 Kbps
Channel(s) : 6 channels
Channel positions : Front: L C R, Side: L R, LFE
Sampling rate : 48.0 KHz
Compression mode : Lossy
Stream size : 243 MiB (7%)
Title : AC3 5.1 384Kbps (Оригинал, iTunes)
Language : English
Default : No
Forced : No
Text #1
ID : 8
Format : UTF-8
Codec ID : S_TEXT/UTF8
Codec ID/Info : UTF-8 Plain Text
Title : R5
Language : Russian
Default : No
Forced : No
Text #2
ID : 9
Format : UTF-8
Codec ID : S_TEXT/UTF8
Codec ID/Info : UTF-8 Plain Text
Language : English
Default : No
Forced : No
Menu
00:00:00.000 : en:Opening Credits/Skin Diving
00:01:33.000 : en:Allison and Her Snails
00:02:48.000 : en:A Real-Life Gigalo
00:10:20.000 : en:Rules of the House
00:12:12.000 : en:Some Trouble with the Remote Control
00:13:34.000 : en:A Little Fire, a Lot of Water
00:17:32.000 : en:Wolfie and the Wiener Schnitzel
00:19:59.000 : en:On the Make
00:22:38.000 : en:A Little Misunderstanding
00:25:25.000 : en:T.J. Hicks: Male Madam
00:29:27.000 : en:Coming on Hot and Heavy
00:32:43.000 : en:A Father's Advice
00:34:44.000 : en:A Date with Tina
00:36:36.000 : en:A Police Investigation
00:37:45.000 : en:A Date with Ruth
00:41:03.000 : en:A Date with Kate
00:44:25.000 : en:The Investigation Continues
00:46:38.000 : en:A Date with Carol
00:50:26.000 : en:Bob Bigalow's Birthday
00:53:34.000 : en:Deuce Discovers Kate's Little Secret
01:00:30.000 : en:Kate Discovers Deuce's Little Secret
01:03:02.000 : en:One Last Trick
01:06:47.000 : en:What Women Really Want
01:10:21.000 : en:Deuce on Trial
01:13:18.000 : en:A Poem for Kate
01:15:48.000 : en:With a Little Help From His Friends
01:18:08.000 : en:Antoine Arrives Home
01:21:47.000 : en:Happily-Ever Afters/End Credits
Скриншоты
Скачать

Скачать торрент!

Как скачивать? · Что такое торрент? · Рейтинг и ограничения

Сайт не распространяет и не хранит электронные версии произведений, а лишь предоставляет доступ к создаваемому пользователями каталогу ссылок на торрент-файлы, которые содержат только списки хеш-сумм

[Профиль] [ЛС]
Показать сообщения:    
Ответить на тему

Текущее время: Сегодня 08:12

Часовой пояс: GMT + 4



Вы не можете начинать темы
Вы не можете отвечать на сообщения
Вы не можете редактировать свои сообщения
Вы не можете удалять свои сообщения
Вы не можете голосовать в опросах
Вы не можете прикреплять файлы к сообщениям
Вы не можете скачивать файлы