Майор Пэйн / Major Payne (Ник Касл / Nick Castle) [1995, США, комедия, WEB-DL 720p] 3x MVO + 2x AVO + Ukr + Sub (Rus, Eng) + Original Eng

Ответить на тему
 
Автор Сообщение

user ®

Стаж: 7 лет 7 месяцев

Сообщений: 20008

Пост Пост: #1 от 22-Сен-2015 18:03

[Цитировать]

Майор Пэйн / Major Payne
Страна: США
Студия: Universal Pictures, Wife 'n' Kids Inc.
Жанр: комедия
Год выпуска: 1995
Продолжительность: 01:37:01
Перевод 1: Профессиональный (многоголосый закадровый) iTunes, Шестой канал по заказу СТС
Перевод 2: Профессиональный (многоголосый закадровый) НТВ+
Перевод 3: Профессиональный (многоголосый закадровый) R5
Перевод 4: Авторский (одноголосый закадровый) А. Гаврилов
Перевод 5: Авторский (одноголосый закадровый) диктор CDV
Cубтитры: Russian (Forced - iTunes, Full), English (Full, SDH - iTunes)
Оригинальная аудиодорожка: английский
Режиссер: Ник Касл / Nick Castle
В ролях: Дэймон Уайанс, Майкл Айронсайд, Скотт Бигелоу, Йода Блэйр, Орландо Браун, Пейтон Чессон-Фол, Стивен Коулмэн, Марк Конуэй, Дэвид ДиХарт, Джошуа Тодд Дивели
Описание: Майору никак не присвоят звание полковника по одной причине - он умеет только убивать, ни на что другое он просто не способен. Его отправляют в отставку. Работа в полиции ему не подходит, и наш герой умирает от скуки в одном из номеров отеля.
Неожиданно он получает предложение стать инструктором по военной подготовке в военном учебном заведении. О том, как сложатся отношения «жестокосердного солдафона» с юными подопечными и одной весьма привлекательной преподавательницей рассказывает эта веселая комедия, полная забавных шуток и смешных ситуаций.
Доп. информация: Сохранены и подписаны главы. Вебка приобретена в русском iTunes. Дорожки с НТВ+, R5, Гавриловым и диктором CDV взяты из раздачи nashe2006. За украинскую дорожку спасибо hurtom. Русские полные субтитры (исправлены орфография и пунктуация) взяты с сайта субтитры.


Сэмпл: http://sendfile.su/1156610
Тип релиза: WEB-DL 720p
Контейнер: MKV
Видео: 1280x692 at 23.976 fps, MPEG-4 AVC, ~4000 kbps avg
Аудио 1: RUS | 48 kHz, AAC, 2/0 (L,R) ch, ~160.00 kbps avg | Многоголосый закадровый, iTunes, Шестой канал по заказу СТС
Аудио 2: RUS | 48 kHz, AC3, 3/2 (L,C,R,l,r) + LFE ch, ~448.00 kbps avg | Многоголосый закадровый, НТВ+
Аудио 3: RUS | 48 kHz, AC3, 2/0 (L,R) ch, ~192.00 kbps avg | Многоголосый закадровый, R5
Аудио 4: RUS | 48 kHz, AC3, 2/0 (L,R) ch, ~192.00 kbps avg | Одноголосый закадровый, А.Гаврилов
Аудио 5: RUS | 48 kHz, AC3, 3/2 (L,C,R,l,r) + LFE ch, ~448.00 kbps avg | Одноголосый закадровый, диктор CDV
Аудио 6: UKR | 48 kHz, AC3, 2/0 (L,R) ch, ~192.00 kbps avg | Многоголосый закадровый, Новый канал
Аудио 7: ENG | 48 kHz, AC3, 3/2 (L,C,R,l,r) + LFE ch, ~384.00 kbps avg | Оригинал, iTunes
MediaInfo
General
Unique ID : 240411972069779891518201109698152367921 (0xB4DDA95E9B61E94AB731C063757A0731)
Complete name : D:\Major.Payne.1995.720p.WEB-DL.5xRus.Ukr.Eng.mkv
Format : Matroska
Format version : Version 4 / Version 2
File size : 4.11 GiB
Duration : 1h 37mn
Overall bit rate : 6 056 Kbps
Movie name : Release by spartanec163
Encoded date : UTC 2015-03-25 18:19:28
Writing application : mkvmerge v7.4.0 ('Circles') 64bit built on Dec 12 2014 12:19:56
Writing library : libebml v1.3.0 + libmatroska v1.4.1
DURATION : 01:32:02.315000000
NUMBER_OF_FRAMES : 818
NUMBER_OF_BYTES : 64993
_STATISTICS_WRITING_APP : mkvmerge v7.4.0 ('Circles') 64bit built on Dec 12 2014 12:19:56
_STATISTICS_WRITING_DATE_UTC : 2015-03-25 18:19:28
_STATISTICS_TAGS : BPS DURATION NUMBER_OF_FRAMES NUMBER_OF_BYTES
Video
ID : 1
Format : AVC
Format/Info : Advanced Video Codec
Format profile : High@L3.1
Format settings, CABAC : No
Format settings, ReFrames : 2 frames
Codec ID : V_MPEG4/ISO/AVC
Duration : 1h 37mn
Width : 1 280 pixels
Height : 692 pixels
Display aspect ratio : 1.85:1
Frame rate mode : Constant
Frame rate : 23.976 fps
Color space : YUV
Chroma subsampling : 4:2:0
Bit depth : 8 bits
Scan type : Progressive
Title : WEB-DL 720p (Rus iTunes)
Language : English
Default : Yes
Forced : No
Color range : Limited
Color primaries : BT.709
Transfer characteristics : BT.709
Matrix coefficients : BT.709
Audio #1
ID : 2
Format : AAC
Format/Info : Advanced Audio Codec
Format profile : LC
Codec ID : A_AAC
Duration : 1h 37mn
Channel(s) : 2 channels
Channel positions : Front: L R
Sampling rate : 48.0 KHz
Compression mode : Lossy
Title : AAC 2.0 160Kbps (Профессиональный, многоголосый - iTunes, Шестой канал по заказу СТС)
Language : Russian
Default : Yes
Forced : No
Audio #2
ID : 3
Format : AC-3
Format/Info : Audio Coding 3
Mode extension : CM (complete main)
Format settings, Endianness : Big
Codec ID : A_AC3
Duration : 1h 37mn
Bit rate mode : Constant
Bit rate : 448 Kbps
Channel(s) : 6 channels
Channel positions : Front: L C R, Side: L R, LFE
Sampling rate : 48.0 KHz
Compression mode : Lossy
Stream size : 311 MiB (7%)
Title : AC3 5.1 448Kbps (Профессиональный, многоголосый - НТВ+)
Language : Russian
Default : No
Forced : No
Audio #3
ID : 4
Format : AC-3
Format/Info : Audio Coding 3
Mode extension : CM (complete main)
Format settings, Endianness : Big
Codec ID : A_AC3
Duration : 1h 37mn
Bit rate mode : Constant
Bit rate : 192 Kbps
Channel(s) : 2 channels
Channel positions : Front: L R
Sampling rate : 48.0 KHz
Compression mode : Lossy
Stream size : 133 MiB (3%)
Title : AC3 2.0 192Kbps (Профессиональный, многоголосый - R5)
Language : Russian
Default : No
Forced : No
Audio #4
ID : 5
Format : AC-3
Format/Info : Audio Coding 3
Mode extension : CM (complete main)
Format settings, Endianness : Big
Codec ID : A_AC3
Duration : 1h 37mn
Bit rate mode : Constant
Bit rate : 192 Kbps
Channel(s) : 2 channels
Channel positions : Front: L R
Sampling rate : 48.0 KHz
Compression mode : Lossy
Stream size : 133 MiB (3%)
Title : AC3 2.0 192Kbps (Авторский, одноголосый - А.Гаврилов)
Language : Russian
Default : No
Forced : No
Audio #5
ID : 6
Format : AC-3
Format/Info : Audio Coding 3
Mode extension : CM (complete main)
Format settings, Endianness : Big
Codec ID : A_AC3
Duration : 1h 37mn
Bit rate mode : Constant
Bit rate : 448 Kbps
Channel(s) : 6 channels
Channel positions : Front: L C R, Side: L R, LFE
Sampling rate : 48.0 KHz
Compression mode : Lossy
Stream size : 311 MiB (7%)
Title : AC3 5.1 448Kbps (Профессиональный, одноголосый - диктор CDV)
Language : Russian
Default : No
Forced : No
Audio #6
ID : 7
Format : AC-3
Format/Info : Audio Coding 3
Mode extension : CM (complete main)
Format settings, Endianness : Big
Codec ID : A_AC3
Duration : 1h 37mn
Bit rate mode : Constant
Bit rate : 192 Kbps
Channel(s) : 2 channels
Channel positions : Front: L R
Sampling rate : 48.0 KHz
Compression mode : Lossy
Stream size : 133 MiB (3%)
Title : AC3 2.0 192Kbps (Профессиональный, многоголосый - Новый канал)
Language : Ukrainian
Default : No
Forced : No
Audio #7
ID : 8
Format : AC-3
Format/Info : Audio Coding 3
Mode extension : CM (complete main)
Format settings, Endianness : Big
Codec ID : A_AC3
Duration : 1h 37mn
Bit rate mode : Constant
Bit rate : 384 Kbps
Channel(s) : 6 channels
Channel positions : Front: L C R, Side: L R, LFE
Sampling rate : 48.0 KHz
Compression mode : Lossy
Stream size : 267 MiB (6%)
Title : AC3 5.1 384Kbps (Оригинал - iTunes)
Language : English
Default : No
Forced : No
Text #1
ID : 9
Format : UTF-8
Codec ID : S_TEXT/UTF8
Codec ID/Info : UTF-8 Plain Text
Title : Надписи, iTunes
Language : Russian
Default : Yes
Forced : No
Text #2
ID : 10
Format : UTF-8
Codec ID : S_TEXT/UTF8
Codec ID/Info : UTF-8 Plain Text
Title : Полные
Language : Russian
Default : No
Forced : No
Text #3
ID : 11
Format : UTF-8
Codec ID : S_TEXT/UTF8
Codec ID/Info : UTF-8 Plain Text
Title : Полные, SDH, iTunes
Language : English
Default : No
Forced : No
Menu
00:00:00.000 : en:Main Titles
00:04:29.000 : en:Hungry for Action
00:07:33.000 : en:Madison School
00:10:46.000 : en:The Green Boys
00:23:30.000 : en:The House of Payne
00:26:46.000 : en:A Killer Cupcake
00:33:17.000 : en:The Dress Parade
00:41:25.000 : en:The Giant Killer
00:48:33.000 : en:A Black Op
00:50:29.000 : en:A Bedtime Story
00:57:29.000 : en:Cuttin' a Rug
00:58:51.000 : en:A Wellington Beef
01:05:25.000 : en:Parent's Day
01:17:29.000 : en:Military Games
01:24:01.000 : en:Payne's Boys
01:27:18.000 : en:Bustin' a Move
01:31:02.000 : en:The Cadet's Pet
01:33:26.000 : en:End Titles
Скриншоты
Скачать

Скачать торрент!

Как скачивать? · Что такое торрент? · Рейтинг и ограничения

Сайт не распространяет и не хранит электронные версии произведений, а лишь предоставляет доступ к создаваемому пользователями каталогу ссылок на торрент-файлы, которые содержат только списки хеш-сумм

[Профиль] [ЛС]
Показать сообщения:    
Ответить на тему

Текущее время: Сегодня 04:20

Часовой пояс: GMT + 4



Вы не можете начинать темы
Вы не можете отвечать на сообщения
Вы не можете редактировать свои сообщения
Вы не можете удалять свои сообщения
Вы не можете голосовать в опросах
Вы не можете прикреплять файлы к сообщениям
Вы не можете скачивать файлы