Заваруха в городе / City Heat (Ричард Бенджамин / Richard Benjamin) [1984, США, боевик, комедия, криминал, WEB-DL 720p] MVO (iTunes Russia) + AVO (А. Михалев) + AVO (Л. Володарский) + Sub Rus + Original Eng

Ответить на тему
 
Автор Сообщение

user ®

Стаж: 7 лет 7 месяцев

Сообщений: 20008

Пост Пост: #1 от 22-Сен-2015 18:03

[Цитировать]

Заваруха в городе / City Heat
Страна: США
Студия: Deliverance Productions, The Malpaso Company, Warner Bros. Pictures
Жанр: боевик, комедия, криминал
Год выпуска: 1984
Продолжительность: 01:37:30
Перевод 1: Профессиональный (многоголосый закадровый) iTunes Russia
Перевод 2: Авторский (одноголосый закадровый) А. Михалев
Перевод 3: Авторский (одноголосый закадровый) Л. Володарский
Cубтитры: Russian (Forced, iTunes), Russian (iTunes)
Оригинальная аудиодорожка: английский
Режиссер: Ричард Бенджамин / Richard Benjamin
В ролях: Клинт Иствуд, Берт Рейнолдс, Джейн Александр, Мэдлин Кан, Рип Торн, Айрин Кэра, Ричард Раундтри, Тони Ло Бьянко, Уильям Сэндерсон, Николас Уорт
Описание: 1933 год, Канзас Сити. Смышлёный частный детектив Мёрфи ищет бандита, который жестоко разделался с его напарником. А шеф полиции Спир вообще бандитов не выносит, так что разговор у лейтенанта с уголовным элементом, как правило, получается короткий.
Нельзя сказать, что Спир и Мёрфи - «в большом восторге» друг от друга, но именно это, как ни странно, делает их идеальными партнёрами в «зачистке» города от кровожадных преступников!
Ведь заваруха, как раз и начинается!
Доп. информация: Сохранены и подписаны оригинальные главы. Исходный WEB-DL куплен в рамках сервиса "Копилка".


Сэмпл: http://sendfile.su/1156670
Тип релиза: WEB-DL 720p
Контейнер: MKV
Видео: 1276x720 at 23.976 fps, MPEG-4 AVC, 4086 kbps avg
Аудио 1: RUS | 48 kHz, AC3, 3/2 (L,C,R,l,r) + LFE ch, ~448.00 kbps avg | Одноголосый закадровый, А.Михалев
Аудио 2: RUS | 48 kHz, AC3, 3/2 (L,C,R,l,r) + LFE ch, ~448.00 kbps avg | Одноголосый закадровый, Л.Володарский
Аудио 3: RUS | 48 kHz, AC3, 2/0 (L,R) ch, ~192.00 kbps avg | Многоголосый закадровый, iTunes Russia
Аудио 4: ENG | 48 kHz, AC3, 3/2 (L,C,R,l,r) + LFE ch, ~448.00 kbps avg
MediaInfo
General
Unique ID : 206537474753728968966591255392351671208 (0x9B61ABB4BD99046BBA117F3DC0FFD3A8)
Complete name : D:\City.Heat.1984.720p.WEB-DL.3xRus.Eng.HDCLUB.mkv
Format : Matroska
Format version : Version 4 / Version 2
File size : 3.91 GiB
Duration : 1h 37mn
Overall bit rate : 5 736 Kbps
Movie name : City Heat (1984) - Release for HDCLUB
Encoded date : UTC 2014-09-10 03:22:56
Writing application : mkvmerge v6.2.0 ('Promised Land') built on Apr 28 2013 12:22:01
Writing library : libebml v1.3.0 + libmatroska v1.4.0
Video
ID : 1
Format : AVC
Format/Info : Advanced Video Codec
Format profile : High@L3.1
Format settings, CABAC : No
Format settings, ReFrames : 2 frames
Codec ID : V_MPEG4/ISO/AVC
Duration : 1h 37mn
Bit rate : 4 086 Kbps
Width : 1 276 pixels
Height : 720 pixels
Display aspect ratio : 16:9
Frame rate mode : Constant
Frame rate : 23.976 fps
Color space : YUV
Chroma subsampling : 4:2:0
Bit depth : 8 bits
Scan type : Progressive
Bits/(Pixel*Frame) : 0.185
Stream size : 2.78 GiB (71%)
Title : City Heat (1984) - Release for HDCLUB
Language : English
Default : Yes
Forced : No
Color range : Limited
Color primaries : BT.709
Transfer characteristics : BT.709
Matrix coefficients : BT.709
Audio #1
ID : 2
Format : AC-3
Format/Info : Audio Coding 3
Mode extension : CM (complete main)
Format settings, Endianness : Big
Codec ID : A_AC3
Duration : 1h 37mn
Bit rate mode : Constant
Bit rate : 448 Kbps
Channel(s) : 6 channels
Channel positions : Front: L C R, Side: L R, LFE
Sampling rate : 48.0 KHz
Compression mode : Lossy
Stream size : 312 MiB (8%)
Title : AC3 6 ch 448 kbps Алексей Михалев
Language : Russian
Default : Yes
Forced : No
Audio #2
ID : 3
Format : AC-3
Format/Info : Audio Coding 3
Mode extension : CM (complete main)
Format settings, Endianness : Big
Codec ID : A_AC3
Duration : 1h 37mn
Bit rate mode : Constant
Bit rate : 448 Kbps
Channel(s) : 6 channels
Channel positions : Front: L C R, Side: L R, LFE
Sampling rate : 48.0 KHz
Compression mode : Lossy
Stream size : 312 MiB (8%)
Title : AC3 6 ch 448 kbps Леонид Володарский
Language : Russian
Default : No
Forced : No
Audio #3
ID : 4
Format : AC-3
Format/Info : Audio Coding 3
Mode extension : CM (complete main)
Format settings, Endianness : Big
Codec ID : A_AC3
Duration : 1h 37mn
Bit rate mode : Constant
Bit rate : 192 Kbps
Channel(s) : 2 channels
Channel positions : Front: L R
Sampling rate : 48.0 KHz
Compression mode : Lossy
Stream size : 134 MiB (3%)
Title : AC3 2 ch 192 kbps MVO
Language : Russian
Default : No
Forced : No
Audio #4
ID : 5
Format : AC-3
Format/Info : Audio Coding 3
Mode extension : CM (complete main)
Format settings, Endianness : Big
Codec ID : A_AC3
Duration : 1h 37mn
Bit rate mode : Constant
Bit rate : 448 Kbps
Channel(s) : 6 channels
Channel positions : Front: L C R, Side: L R, LFE
Sampling rate : 48.0 KHz
Compression mode : Lossy
Stream size : 312 MiB (8%)
Title : AC3 6 ch 448 kbps (DVD)
Language : English
Default : No
Forced : No
Text #1
ID : 6
Format : UTF-8
Codec ID : S_TEXT/UTF8
Codec ID/Info : UTF-8 Plain Text
Title : Forced
Language : Russian
Default : Yes
Forced : No
Text #2
ID : 7
Format : UTF-8
Codec ID : S_TEXT/UTF8
Codec ID/Info : UTF-8 Plain Text
Language : Russian
Default : No
Forced : No
Menu
00:00:00.000 : en:1. Beginning
00:03:35.000 : en:2. Lou's Diner
00:08:12.000 : en:3. Murphy's Situation
00:12:42.000 : en:4. Bouncing Bonus
00:16:45.000 : en:5. Double-Dealer Dehl
00:21:13.000 : en:6. Fight Night
00:24:04.000 : en:7. Coll's Threat
00:28:31.000 : en:8. Surprise Guests
00:33:48.000 : en:9. Financial Rearrangements
00:38:33.000 : en:10. Next Truck Coming Along
00:42:21.000 : en:11. Just Want the Bullet
00:45:58.000 : en:12. Lady in Distress
00:49:44.000 : en:13. Good at Taking off
00:54:44.000 : en:14. Meeting Ginny
00:56:45.000 : en:15. Still Freezing
00:58:18.000 : en:16. Ginny's Accident
01:02:39.000 : en:17. The Goods
01:05:41.000 : en:18. Boulevard of Bullets
01:10:12.000 : en:19. Speer Calls the Shots
01:14:18.000 : en:20. Giving It to Pitt
01:17:40.000 : en:21. Big Guns Come Out
01:19:14.000 : en:22. Heating Things up
01:24:10.000 : en:23. Lady and Her Rescuers
01:28:31.000 : en:24. Busting up the Game
01:30:26.000 : en:25. Sooner
01:32:57.000 : en:26. Abhorrent Violence
Скриншоты
Скачать

Скачать торрент!

Как скачивать? · Что такое торрент? · Рейтинг и ограничения

Сайт не распространяет и не хранит электронные версии произведений, а лишь предоставляет доступ к создаваемому пользователями каталогу ссылок на торрент-файлы, которые содержат только списки хеш-сумм

[Профиль] [ЛС]
Показать сообщения:    
Ответить на тему

Текущее время: Сегодня 07:03

Часовой пояс: GMT + 4



Вы не можете начинать темы
Вы не можете отвечать на сообщения
Вы не можете редактировать свои сообщения
Вы не можете удалять свои сообщения
Вы не можете голосовать в опросах
Вы не можете прикреплять файлы к сообщениям
Вы не можете скачивать файлы