Маленькая смерть / The Little Death (Джош Лоусон / Josh Lawson) [2014, Австралия, комедия, WEB-DL 720p] MVO (iTunes Russia)

Ответить на тему
 
Автор Сообщение

user ®

Стаж: 7 лет 7 месяцев

Сообщений: 20008

Пост Пост: #1 от 22-Сен-2015 14:57

[Цитировать]

Маленькая смерть / The Little Death
Страна: Австралия
Студия: Head Gear Films, Metrol Technology, See Pictures
Жанр: комедия
Год выпуска: 2014
Продолжительность: 01:32:09
Перевод: Профессиональный (многоголосый закадровый) iTunes Russia
Cубтитры: нет
Оригинальная аудиодорожка: нет
Режиссер: Джош Лоусон / Josh Lawson
В ролях: Бояна Новакович, Джош Лоусон, Дэймон Херриман, Патрик Браммелл, Бен Лосон, Тэсним Рок, Эрин Джеймс, Стефани Мэй, Лейчи Халм, Т.Дж. Пауэр
Описание: Сюжет фильма рассказывает о взаимоотношениях нескольких любовных пар. Пол и Мэйв всячески пытаются разнообразить свою интимную жизнь, прибегая к достаточно жестоким методам. Правда тайные фантазии девушки немного шокируют ее парня, но он старается не показывать этого. Ричард и Рованна на протяжении некоторого времени пытаются зачать ребенка, однако все их попытки уже давно превратились в механические действия, не приносящие никакого удовольствия. В это время в отношениях Дэна и Эви появляется довольно много проблем и они обращаются за помощью к профессиональному консультанту.
Все они имеют тайные страхи и желания, но для каждого из них расставание равносильно смерти. Всеми способами они пытаются сохранить свои отношения, стараясь сделать любимого человека счастливым, что довольно часто приводит к курьезным ситуациям...
Доп. информация: Сохранены оригинальные главы. Исходный WEB-DL куплен в рамках сервиса "Копилка".


Сэмпл: http://sendfile.su/1156551
Тип релиза: WEB-DL 720p
Контейнер: MKV
Видео: 960x530@1280x530, 25.000 fps, MPEG-4 AVC, ~4000 kbps avg
Аудио: RUS | 48 kHz, AC3, 3/2 (L,C,R,l,r) + LFE ch, ~384.00 kbps avg | iTunes Russia
MediaInfo
General
Unique ID : 215102975979423417189918176638367737329 (0xA1D353858CBEA9098F1AF7E1E96CA5F1)
Complete name : D:\The.Little.Death.2014.720p.WEB-DL.Rus.HDCLUB.mkv
Format : Matroska
Format version : Version 2
File size : 2.83 GiB
Duration : 1h 32mn
Overall bit rate : 4 389 Kbps
Movie name : The Little Death (2014) - Release for HDCLUB
Encoded date : UTC 2015-08-24 12:02:17
Writing application : mkvmerge v3.4.0 ('Rapunzel') built on May 15 2010 09:38:20
Writing library : libebml v0.8.0 + libmatroska v0.9.0
Video
ID : 1
Format : AVC
Format/Info : Advanced Video Codec
Format profile : Main@L3.1
Format settings, CABAC : No
Format settings, ReFrames : 2 frames
Codec ID : V_MPEG4/ISO/AVC
Duration : 1h 32mn
Bit rate : 3 918 Kbps
Width : 960 pixels
Height : 530 pixels
Display aspect ratio : 2.40:1
Frame rate mode : Constant
Frame rate : 25.000 fps
Color space : YUV
Chroma subsampling : 4:2:0
Bit depth : 8 bits
Scan type : Progressive
Bits/(Pixel*Frame) : 0.308
Stream size : 2.52 GiB (89%)
Title : The Little Death (2014) - Release for HDCLUB
Language : English
Default : Yes
Forced : No
Color range : Limited
Color primaries : BT.709
Transfer characteristics : BT.709
Matrix coefficients : BT.709
Audio
ID : 2
Format : AC-3
Format/Info : Audio Coding 3
Mode extension : CM (complete main)
Format settings, Endianness : Big
Codec ID : A_AC3
Duration : 1h 32mn
Bit rate mode : Constant
Bit rate : 384 Kbps
Channel(s) : 6 channels
Channel positions : Front: L C R, Side: L R, LFE
Sampling rate : 48.0 KHz
Compression mode : Lossy
Stream size : 253 MiB (9%)
Title : AC3 5.1 @ 384 kbps - MVO, iTunes
Language : Russian
Default : Yes
Forced : No
Menu
00:00:00.000 : en:1
00:06:18.000 : en:2
00:10:46.000 : en:3
00:15:23.000 : en:4
00:19:41.000 : en:5
00:24:58.000 : en:6
00:29:48.000 : en:7
00:35:48.000 : en:8
00:40:37.000 : en:9
00:46:02.000 : en:10
00:53:27.000 : en:11
01:01:25.000 : en:12
01:09:14.000 : en:13
01:19:55.000 : en:14
Скриншоты
Скачать

Скачать торрент!

Как скачивать? · Что такое торрент? · Рейтинг и ограничения

Сайт не распространяет и не хранит электронные версии произведений, а лишь предоставляет доступ к создаваемому пользователями каталогу ссылок на торрент-файлы, которые содержат только списки хеш-сумм

[Профиль] [ЛС]
Показать сообщения:    
Ответить на тему

Текущее время: Сегодня 15:53

Часовой пояс: GMT + 4



Вы не можете начинать темы
Вы не можете отвечать на сообщения
Вы не можете редактировать свои сообщения
Вы не можете удалять свои сообщения
Вы не можете голосовать в опросах
Вы не можете прикреплять файлы к сообщениям
Вы не можете скачивать файлы