Шоссе / Highway (Джеймс Кокс / James Cox) [2002, США, драма, криминал, WEB-DL 720p] DVO + Sub Eng + Original Eng

Ответить на тему
 
Автор Сообщение

user ®

Стаж: 7 лет 7 месяцев

Сообщений: 20008

Пост Пост: #1 от 22-Сен-2015 14:57

[Цитировать]

Шоссе / Highway
Страна: США
Студия: Alex Entertainment Inc.
Жанр: драма, криминал
Год выпуска: 2002
Продолжительность: 01:36:57
Перевод: Профессиональный (двухголосый закадровый)
Cубтитры: английские
Оригинальная аудиодорожка: английский
Режиссер: Джеймс Кокс / James Cox
В ролях: Джаред Лето, Джейк Джилленхол, Сэльма Блэр, Джон К. МакГинли, Джереми Пивен, Арден Майрин, Кимберли Кейтс, Марк Ролстон, Джаррет Томас, Стивен Шеллен
Описание: Два отвязных приятеля - Джек и Пайлот - решают уехать из Лас-Вегаса в Сиэттл на своей видавшей виды машине. Джеку надо унести ноги от рогатого мужа, а Пайлот ищет приключений и свою настоящую любовь.
По дороге развеселые друзья посещают вечеринки, знакомятся с девушкой Кэсси и чудаком Джонни Лисом, превращают свою машину в кабриолет и посещают шоу мальчика-аллигатора. Но по пятам за ними едут бандиты, а Сиэттл оказывается не тем местом, где можно было найти счастье.
Доп. информация: Сохранены оригинальные главы.


Сэмпл: http://sendfile.su/1156584
Тип релиза: WEB-DL 720p
Контейнер: MKV
Видео: 1280 x 544 at 23.976 fps, MPEG-4 AVC, ~3 979 kbps avg
Аудио 1: RUS | 48 kHz, AC3, 3/2 (L,C,R,l,r) + LFE ch, ~448.00 kbps avg | Двухголосый закадровый
Аудио 2: ENG | 48 kHz, AC3, 3/2 (L,C,R,l,r) + LFE ch, ~384.00 kbps avg
MediaInfo
General
Unique ID : 236222298688843373140399246381196224462 (0xB1B6C2860879BA41931E824FFDDFA7CE)
Complete name : D:\Highway.2002.720p.WEB-DL.Rus.Eng.Sub-HDCLUB.mkv
Format : Matroska
Format version : Version 4 / Version 2
File size : 3.32 GiB
Duration : 1h 36mn
Overall bit rate : 4 909 Kbps
Encoded date : UTC 2015-06-03 17:31:15
Writing application : mkvmerge v6.3.0 ('You can't stop me!') built on Jun 27 2013 22:06:07
Writing library : libebml v1.3.0 + libmatroska v1.4.0
Video
ID : 1
Format : AVC
Format/Info : Advanced Video Codec
Format profile : Main@L3.1
Format settings, CABAC : No
Format settings, ReFrames : 2 frames
Codec ID : V_MPEG4/ISO/AVC
Duration : 1h 36mn
Bit rate : 3 979 Kbps
Width : 1 280 pixels
Height : 544 pixels
Display aspect ratio : 2.35:1
Frame rate mode : Constant
Frame rate : 23.976 fps
Color space : YUV
Chroma subsampling : 4:2:0
Bit depth : 8 bits
Scan type : Progressive
Bits/(Pixel*Frame) : 0.238
Stream size : 2.69 GiB (81%)
Language : English
Default : Yes
Forced : No
Color range : Limited
Color primaries : BT.709
Transfer characteristics : BT.709
Matrix coefficients : BT.709
Audio #1
ID : 2
Format : AC-3
Format/Info : Audio Coding 3
Mode extension : CM (complete main)
Format settings, Endianness : Big
Codec ID : A_AC3
Duration : 1h 36mn
Bit rate mode : Constant
Bit rate : 448 Kbps
Channel(s) : 6 channels
Channel positions : Front: L C R, Side: L R, LFE
Sampling rate : 48.0 KHz
Compression mode : Lossy
Stream size : 311 MiB (9%)
Title : DVO
Language : Russian
Default : Yes
Forced : No
Audio #2
ID : 3
Format : AC-3
Format/Info : Audio Coding 3
Mode extension : CM (complete main)
Format settings, Endianness : Big
Codec ID : A_AC3
Duration : 1h 36mn
Bit rate mode : Constant
Bit rate : 384 Kbps
Channel(s) : 6 channels
Channel positions : Front: L C R, Side: L R, LFE
Sampling rate : 48.0 KHz
Compression mode : Lossy
Stream size : 266 MiB (8%)
Language : English
Default : No
Forced : No
Text
ID : 4
Format : UTF-8
Codec ID : S_TEXT/UTF8
Codec ID/Info : UTF-8 Plain Text
Title : CC
Language : English
Default : No
Forced : No
Menu
00:00:00.000 : en:Main Titles/Vegas Youth
00:04:11.000 : en:The Jack & Jilly Game
00:07:48.000 : en:"You Gotta Bolt, Jack!"
00:09:57.000 : en:Running From Infamy
00:16:14.000 : en:Scawldy's Cornucopia
00:22:43.000 : en:The Dan D Fine Ladies
00:28:08.000 : en:The Girl From Bishop
00:31:42.000 : en:What's In A Name
00:34:09.000 : en:Johnny The Fox
00:39:10.000 : en:Dreaming Of Amy
00:43:00.000 : en:The Right Way To Travel
00:47:39.000 : en:The Boy
00:54:22.000 : en:"Do You Think He's Happy?"
00:57:15.000 : en:1,056 Times
01:08:42.000 : en:Pandas & Alligator Boys
01:14:29.000 : en:The Breakup
01:19:54.000 : en:Seattle - The Vigil
01:24:38.000 : en:Done Running
01:27:57.000 : en:Re-entry Problems/"Forever"
01:32:21.000 : en:End Credits
Скриншоты
Скачать

Скачать торрент!

Как скачивать? · Что такое торрент? · Рейтинг и ограничения

Сайт не распространяет и не хранит электронные версии произведений, а лишь предоставляет доступ к создаваемому пользователями каталогу ссылок на торрент-файлы, которые содержат только списки хеш-сумм

[Профиль] [ЛС]
Показать сообщения:    
Ответить на тему

Текущее время: Сегодня 01:50

Часовой пояс: GMT + 4



Вы не можете начинать темы
Вы не можете отвечать на сообщения
Вы не можете редактировать свои сообщения
Вы не можете удалять свои сообщения
Вы не можете голосовать в опросах
Вы не можете прикреплять файлы к сообщениям
Вы не можете скачивать файлы