Чайник (Жаргал Бадмацыренов, Александр Кузьминов, Евгений Замалиев) [2010, комедия, DVDRip-AVC]

Ответить на тему
 
Автор Сообщение

user ®

Стаж: 7 лет 7 месяцев

Сообщений: 20008

Пост Пост: #1 от 22-Сен-2015 14:57

[Цитировать]

Чайник
Жанр: комедия
Год выпуска: 2010
Продолжительность: 1:32:27
Режиссёр: Жаргал Бадмацыренов, Александр Кузьминов, Евгений Замалиев
В ролях:
Алик Санжиев, Иван Васильев, Сергей Цыренов, Александр Фролов, Александр Цыренов, Вера Ваганова, Борис Ангархаев, Елена Покацкая, Юрий Редикальцев, Лариса Квачева
Описание: Действие картины происходит в наше время, в городе Улан-Удэ. Главные действующие лица — четыре друга. Обычные парни, которые учатся, общаются, занимаются спортом и мечтают о машине. Подходящий вариант — «Тойота Чайзер», как символ «крутой» жизни, ждет их на авторынке. Чтобы реализовать свою мечту, ребята решают накопить денег.
Сэмпл: http://sendfile.su/1156836
Качество видео: DVDRip-AVC
Формат видео: AVI
Видео: 720x304 (2.37:1), 25 fps, DivX Codec 4.x ~916 kbps avg, 0.17 bit/pixel
Аудио: 48 kHz, MPEG Layer 3, 2 ch, ~121.42 kbps avg
MediaInfo
General
Complete name : D:\Video\Чайник.2010.DVDRip.avi
Format : AVI
Format/Info : Audio Video Interleave
File size : 697 MiB
Duration : 1h 32mn
Overall bit rate mode : Variable
Overall bit rate : 1 051 Kbps
Writing application : MEncoder Sherpya-SVN-r29355-4.5.0
Writing library : MPlayer
Video
ID : 0
Format : MPEG-4 Visual
Format profile : Simple@L1
Format settings, BVOP : No
Format settings, QPel : No
Format settings, GMC : No warppoints
Format settings, Matrix : Default (H.263)
Codec ID : DIVX
Codec ID/Info : Project Mayo
Codec ID/Hint : DivX 4
Duration : 1h 32mn
Bit rate : 917 Kbps
Width : 720 pixels
Height : 304 pixels
Display aspect ratio : 2.35:1
Frame rate : 25.000 fps
Color space : YUV
Chroma subsampling : 4:2:0
Bit depth : 8 bits
Scan type : Progressive
Compression mode : Lossy
Bits/(Pixel*Frame) : 0.168
Stream size : 608 MiB (87%)
Writing library : Lavc52.30.2
Audio
ID : 1
Format : MPEG Audio
Format version : Version 1
Format profile : Layer 3
Mode : Joint stereo
Mode extension : MS Stereo
Codec ID : 55
Codec ID/Hint : MP3
Duration : 1h 32mn
Bit rate mode : Variable
Bit rate : 121 Kbps
Channel(s) : 2 channels
Sampling rate : 48.0 KHz
Compression mode : Lossy
Stream size : 80.4 MiB (12%)
Alignment : Aligned on interleaves
Interleave, duration : 24 ms (0.60 video frame)
Interleave, preload duration : 445 ms
Скриншот c названием фильма Скриншоты
Скачать

Скачать торрент!

Как скачивать? · Что такое торрент? · Рейтинг и ограничения

Сайт не распространяет и не хранит электронные версии произведений, а лишь предоставляет доступ к создаваемому пользователями каталогу ссылок на торрент-файлы, которые содержат только списки хеш-сумм

[Профиль] [ЛС]
Показать сообщения:    
Ответить на тему

Текущее время: Сегодня 14:44

Часовой пояс: GMT + 4



Вы не можете начинать темы
Вы не можете отвечать на сообщения
Вы не можете редактировать свои сообщения
Вы не можете удалять свои сообщения
Вы не можете голосовать в опросах
Вы не можете прикреплять файлы к сообщениям
Вы не можете скачивать файлы