Любовь без пересадок / Amour & turbulences (Александр Кастаньетти / Alexandre Castagnetti) [2013, Франция, мелодрама, комедия, BDRip 720p] Dub + Original Fre

Ответить на тему
 
Автор Сообщение

user ®

Стаж: 7 лет 7 месяцев

Сообщений: 20008

Пост Пост: #1 от 21-Сен-2015 23:24

[Цитировать]

Любовь без пересадок / Amour & turbulences
Страна: Франция
Студия: Indéfilms, Manchester Films, Universal Pictures International (UPI)
Жанр: мелодрама, комедия
Год выпуска: 2013
Продолжительность: 01:37:09
Перевод: Профессиональный (дублированный)
Cубтитры: нет
Оригинальная аудиодорожка: французский
Режиссер: Александр Кастаньетти / Alexandre Castagnetti
В ролях: Людивин Санье, Николя Бедо, Джонатан Коэн, Арно Дюкре, Бриджитт Катийон, Жакки Берруайе, Клементин Селарье, Мишель Вюйермоз, Лила Сале, Ина Кастаньетти
Описание: Преуспевающий адвокат Антуан никогда не знал недостатка в женском внимании. Отправляясь по делам из Нью-Йорка в Париж, в самолете он оказывается в соседнем кресле с бывшей подругой Джули. Обреченные провести вместе семь долгих часов полета бывшие любовники успевают вспомнить былые обиды, все неприятности, доставленные друг другу, и понять, что их разрыв был ошибкой. Но успеют ли они эту ошибку исправить?..

Сэмпл: http://multi-up.com/1067258
Тип релиза: BDRip 720p
Контейнер: MKV
Видео: h264 AVC, PAL, 1280х536 (2.35:1), 3209 кбит/с, 23.976 fps, 0.195 bt/px
Аудио: AC3, 384 кбит/с, 6 ch, 48 КГц - русский
Аудио 2: AC3, 384 кбит/с, 6 ch, 48 КГц - французский (оригинал)
MediaInfo
Общее
Уникальный идентификатор : 241657622622068748352928377685474211572 (0xB5CD90AEF69739A19D30ACBEA916F6F4)
Полное имя : D:\Amour.turbulences_2013.BDRip720p.mkv
Формат : Matroska
Версия формата : Version 4 / Version 2
Размер файла : 2,75 Гбайт
Продолжительность : 1 ч. 37 м.
Общий поток : 4058 Кбит/сек
Дата кодирования : UTC 2015-09-12 09:52:14
Программа кодирования : mkvmerge v7.5.0 ('Glass Culture') 64bit built on Jan 4 2015 16:48:44
Библиотека кодирования : libebml v1.3.1 + libmatroska v1.4.2
DURATION : 01:37:08.800000000
NUMBER_OF_FRAMES : 182150
NUMBER_OF_BYTES : 279782400
_STATISTICS_WRITING_APP : mkvmerge v7.5.0 ('Glass Culture') 64bit built on Jan 4 2015 16:48:44
_STATISTICS_WRITING_DATE_UTC : 2015-09-12 09:52:14
_STATISTICS_TAGS : BPS DURATION NUMBER_OF_FRAMES NUMBER_OF_BYTES
Видео
Идентификатор : 1
Формат : AVC
Формат/Информация : Advanced Video Codec
Профиль формата : High@L4.1
Параметр CABAC формата : Да
Параметр ReFrames формата : 8 кадров
Идентификатор кодека : V_MPEG4/ISO/AVC
Продолжительность : 1 ч. 37 м.
Битрейт : 3209 Кбит/сек
Ширина : 1280 пикселей
Высота : 536 пикселей
Соотношение сторон : 2,40:1
Режим частоты кадров : Постоянный
Частота кадров : 23,976 кадра/сек
Цветовое пространство : YUV
Субдискретизация насыщенности : 4:2:0
Битовая глубина : 8 бит
Тип развёртки : Прогрессивная
Бит/(Пиксели*Кадры) : 0.195
Размер потока : 2,18 Гбайт (79%)
Библиотека кодирования : x264 core 125 r2208 d9d2288
Настройки программы : cabac=1 / ref=8 / deblock=1:-3:-3 / analyse=0x3:0x133 / me=umh / subme=11 / psy=1 / psy_rd=1.00:0.15 / mixed_ref=1 / me_range=32 / chroma_me=1 / trellis=2 / 8x8dct=1 / cqm=0 / deadzone=21,11 / fast_pskip=0 / chroma_qp_offset=-3 / threads=12 / lookahead_threads=2 / sliced_threads=0 / nr=0 / decimate=1 / interlaced=0 / bluray_compat=0 / constrained_intra=0 / bframes=8 / b_pyramid=2 / b_adapt=2 / b_bias=0 / direct=1 / weightb=1 / open_gop=0 / weightp=2 / keyint=250 / keyint_min=23 / scenecut=40 / intra_refresh=0 / rc=crf / mbtree=0 / crf=17.5 / qcomp=0.60 / qpmin=0 / qpmax=69 / qpstep=4 / ip_ratio=1.30 / pb_ratio=1.15 / aq=2:1.00
Язык : English
Default : Да
Forced : Нет
DURATION : 01:37:08.656000000
NUMBER_OF_FRAMES : 139748
NUMBER_OF_BYTES : 2395689199
_STATISTICS_WRITING_APP : mkvmerge v7.5.0 ('Glass Culture') 64bit built on Jan 4 2015 16:48:44
_STATISTICS_WRITING_DATE_UTC : 2015-09-12 09:52:14
_STATISTICS_TAGS : BPS DURATION NUMBER_OF_FRAMES NUMBER_OF_BYTES
Аудио #1
Идентификатор : 2
Формат : AC-3
Формат/Информация : Audio Coding 3
Расширение режима : CM (complete main)
Параметр Endianness формата : Big
Идентификатор кодека : A_AC3
Продолжительность : 1 ч. 37 м.
Вид битрейта : Постоянный
Битрейт : 384 Кбит/сек
Каналы : 6 каналов
Расположение каналов : Front: L C R, Side: L R, LFE
Частота : 48,0 КГц
Метод сжатия : С потерями
Размер потока : 267 Мбайт (9%)
Язык : Russian
Default : Да
Forced : Нет
Аудио #2
Идентификатор : 3
Формат : AC-3
Формат/Информация : Audio Coding 3
Расширение режима : CM (complete main)
Параметр Endianness формата : Big
Идентификатор кодека : A_AC3
Продолжительность : 1 ч. 37 м.
Вид битрейта : Постоянный
Битрейт : 384 Кбит/сек
Каналы : 6 каналов
Расположение каналов : Front: L C R, Side: L R, LFE
Частота : 48,0 КГц
Метод сжатия : С потерями
Размер потока : 267 Мбайт (9%)
Язык : French
Default : Нет
Forced : Нет
Скриншоты
Скачать

Скачать торрент!

Как скачивать? · Что такое торрент? · Рейтинг и ограничения

Сайт не распространяет и не хранит электронные версии произведений, а лишь предоставляет доступ к создаваемому пользователями каталогу ссылок на торрент-файлы, которые содержат только списки хеш-сумм

[Профиль] [ЛС]
Показать сообщения:    
Ответить на тему

Текущее время: Сегодня 18:35

Часовой пояс: GMT + 4



Вы не можете начинать темы
Вы не можете отвечать на сообщения
Вы не можете редактировать свои сообщения
Вы не можете удалять свои сообщения
Вы не можете голосовать в опросах
Вы не можете прикреплять файлы к сообщениям
Вы не можете скачивать файлы