Любовь не стоит ничего / Love Don\'t Cost a Thing (Трой Бейер / Troy Beyer) [2003, США, комедия, мелодрама, драма, WEB-DL 1080p] MVO + AVO (Евгений Рудой) + Sub Rus, Eng + Original Eng

Ответить на тему
 
Автор Сообщение

user ®

Стаж: 7 лет 7 месяцев

Сообщений: 20008

Пост Пост: #1 от 21-Сен-2015 17:12

[Цитировать]

Любовь не стоит ничего / Love Don't Cost a Thing
Страна: США
Студия: Alcon Entertainment, Burg/Koules Productions, CRML Productions
Жанр: комедия, мелодрама, драма
Год выпуска: 2003
Продолжительность: 01:41:13
Перевод 1: Профессиональный (многоголосый закадровый)
Перевод 2: Авторский (одноголосый закадровый) Евгений Рудой
Cубтитры: русские, английские
Оригинальная аудиодорожка: английский
Режиссер: Трой Бейер / Troy Beyer
В ролях: Ник Кэннон, Кристина Милиан, Джордан Бёрг, Джеки Бенуа, Джордж Седар, Гэй Томас, Аль Томпсон, Сэм Сарпонг, Николь Робинсон, Мелисса Шуман…
Описание: Старшекласснику Элвину не везет. У бедолаги проблемы с учебой, одноклассники отказываются принимать его в свою «тусовку», да и с девушками — полная катастрофа! Однако судьба предоставляет «везунчику» Элвину прекрасный шанс. Когда местная школьная «королева красоты» разбивает машину и обращается к нему за помощью, Элвин предлагает ей сделку. По условиям договора он помогает ей уладить проблемы с машиной — за это Пэрис соглашается притвориться на две недели его подружкой… Теперь у Элвина было все, о чем он мечтал, и это не стоило ему ровным счетом ничего… Но сможет ли наш герой довольствоваться фальшивыми дружбой, любовью и признанием, при этом не потеряв… себя?
II Сэмпл II IMDB II
Тип релиза: WEB-DL 1080p
Контейнер: MKV
Видео: AVC / 1904x1076 / 16:9 / 23.976fps / Bit rate 4999Kbps
Аудио 1: AC3 / 48.0 KHz / 2ch. / 192kbps / rus / mvo
Аудио 2: AC3 / 48.0 KHz / 2ch. / 192kbps / rus / avo / Евгений Рудой
Аудио 3: AC3 / 48.0 KHz / 6ch. / 384kbps / eng
Формат субтитров: softsub (SRT)
MediaInfo
Общее
Уникальный идентификатор : 237537831289234961389861579399385484830 (0xB2B41F49D74B1E70A2127FD301BE8E1E)
Полное имя : H:\!_Torrent\Love.Dont.Cost.a.Thing.2003.WEB-DL.1080p_by_vedigo.mkv
Формат : Matroska
Версия формата : Version 4 / Version 2
Размер файла : 4,16 Гбайт
Продолжительность : 1 ч. 41 м.
Общий поток : 5885 Кбит/сек
Название фильма : Love.Dont.Cost.a.Thing.2003.WEB-DL.1080p_by_vedigo
Дата кодирования : UTC 2015-09-20 06:19:02
Программа кодирования : mkvmerge v8.4.0 ('A better way to fly') 64bit
Библиотека кодирования : libebml v1.3.1 + libmatroska v1.4.2
DURATION : 01:35:41.316000000
NUMBER_OF_FRAMES : 921
NUMBER_OF_BYTES : 77356
_STATISTICS_WRITING_APP : mkvmerge v8.4.0 ('A better way to fly') 64bit
_STATISTICS_WRITING_DATE_UTC : 2015-09-20 06:19:02
_STATISTICS_TAGS : BPS DURATION NUMBER_OF_FRAMES NUMBER_OF_BYTES
Видео
Идентификатор : 1
Формат : AVC
Формат/Информация : Advanced Video Codec
Профиль формата : High@L4
Параметр CABAC формата : Да
Параметр ReFrames формата : 4 кадра
Идентификатор кодека : V_MPEG4/ISO/AVC
Продолжительность : 1 ч. 41 м.
Битрейт : 4999 Кбит/сек
Ширина : 1904 пикселя
Высота : 1076 пикселей
Соотношение сторон : 16:9
Режим частоты кадров : Постоянный
Частота кадров : 23,976 кадра/сек
Цветовое пространство : YUV
Субдискретизация насыщенности : 4:2:0
Битовая глубина : 8 бит
Тип развёртки : Прогрессивная
Бит/(Пиксели*Кадры) : 0.102
Размер потока : 3,54 Гбайт (85%)
Заголовок : Love.Dont.Cost.a.Thing.2003.WEB-DL.1080p_by_vedigo
Default : Да
Forced : Нет
Цветовой диапазон : Limited
Основные цвета : BT.709
Характеристики трансфера : BT.709
Коэффициенты матрицы : BT.709
Аудио #1
Идентификатор : 2
Формат : AC-3
Формат/Информация : Audio Coding 3
Расширение режима : CM (complete main)
Параметр Endianness формата : Big
Идентификатор кодека : A_AC3
Продолжительность : 1 ч. 41 м.
Вид битрейта : Постоянный
Битрейт : 192 Кбит/сек
Каналы : 2 канала
Расположение каналов : Front: L R
Частота : 48,0 КГц
Метод сжатия : С потерями
Размер потока : 139 Мбайт (3%)
Заголовок : MVO
Язык : Russian
Default : Да
Forced : Нет
Аудио #2
Идентификатор : 3
Формат : AC-3
Формат/Информация : Audio Coding 3
Расширение режима : CM (complete main)
Параметр Endianness формата : Big
Идентификатор кодека : A_AC3
Продолжительность : 1 ч. 41 м.
Вид битрейта : Постоянный
Битрейт : 192 Кбит/сек
Каналы : 2 канала
Расположение каналов : Front: L R
Частота : 48,0 КГц
Метод сжатия : С потерями
Размер потока : 139 Мбайт (3%)
Заголовок : AVO @ Евгений Рудой
Язык : Russian
Default : Нет
Forced : Нет
Аудио #3
Идентификатор : 4
Формат : AC-3
Формат/Информация : Audio Coding 3
Расширение режима : CM (complete main)
Параметр Endianness формата : Big
Идентификатор кодека : A_AC3
Продолжительность : 1 ч. 41 м.
Вид битрейта : Постоянный
Битрейт : 384 Кбит/сек
Каналы : 6 каналов
Расположение каналов : Front: L C R, Side: L R, LFE
Частота : 48,0 КГц
Метод сжатия : С потерями
Размер потока : 278 Мбайт (7%)
Заголовок : original
Default : Нет
Forced : Нет
Текст #1
Идентификатор : 5
Формат : UTF-8
Идентификатор кодека : S_TEXT/UTF8
Идентификатор кодека/Информация : UTF-8 Plain Text
Заголовок : subtitle rus
Язык : Russian
Default : Нет
Forced : Нет
Текст #2
Идентификатор : 6
Формат : UTF-8
Идентификатор кодека : S_TEXT/UTF8
Идентификатор кодека/Информация : UTF-8 Plain Text
Заголовок : subtitle eng
Язык : English
Default : Нет
Forced : Нет
Меню
00:00:00.000 : en:Pool cool Credits
00:02:44.000 : en:Party splasher
00:06:10.000 : en:Free agents
00:09:40.000 : en:Forbidden hallway
00:12:35.000 : en:No lovin'
00:16:04.000 : en:Look out!
00:19:29.000 : en:Driving a bargain
00:23:49.000 : en:How hot she is
00:27:54.000 : en:Why, girl?
00:30:44.000 : en:Rite of passage
00:35:42.000 : en:Not telling
00:37:55.000 : en:Losers to the left
00:41:46.000 : en:Urkel gone gangsta
00:45:23.000 : en:Lessons in sexy
00:50:15.000 : en:Date night
00:52:59.000 : en:Trying to come up
00:55:15.000 : en:Invisible
00:57:49.000 : en:Paris's dream
01:02:30.000 : en:Bounce
01:05:59.000 : en:Popularity's a job
01:08:16.000 : en:Foot on the gas
01:12:20.000 : en:I told you so
01:16:22.000 : en:Ditch day
01:21:02.000 : en:Al Johnson's girls
01:25:10.000 : en:Getting real
01:30:03.000 : en:Who's bad
01:35:37.000 : en:Other dreams
01:37:08.000 : en:End Credits
Скриншоты
Скачать

Скачать торрент!

Как скачивать? · Что такое торрент? · Рейтинг и ограничения

Сайт не распространяет и не хранит электронные версии произведений, а лишь предоставляет доступ к создаваемому пользователями каталогу ссылок на торрент-файлы, которые содержат только списки хеш-сумм

[Профиль] [ЛС]
Показать сообщения:    
Ответить на тему

Текущее время: Сегодня 07:50

Часовой пояс: GMT + 4



Вы не можете начинать темы
Вы не можете отвечать на сообщения
Вы не можете редактировать свои сообщения
Вы не можете удалять свои сообщения
Вы не можете голосовать в опросах
Вы не можете прикреплять файлы к сообщениям
Вы не можете скачивать файлы