Проказник из психушки / Психодром / Сеанс психоанализа / The Couch Trip (Майкл Ритчи / Michael Ritchie) [1988, США, комедия, WEB-DL 720p] Dub + MVO + 2x DVO + 2x AVO + Sub Eng + Original Eng

Ответить на тему
 
Автор Сообщение

user ®

Стаж: 7 лет 7 месяцев

Сообщений: 20008

Пост Пост: #1 от 21-Сен-2015 17:12

[Цитировать]

Проказник из психушки / Психодром / Сеанс психоанализа / The Couch Trip
-Страна: США
Жанр: Комедия
Год выпуска: 1988
Продолжительность: 01:38:00-Перевод 1: Профессиональный (дублированный) Синхрон
Перевод 2: Профессиональный (многоголосый, закадровый) Петербург 5 Канал
Перевод 3: Профессиональный (двухголосый) НТВ+
Перевод 4: Профессиональный (двухголосый) Екатеринбург Арт
Перевод 5: Авторский (одноголосый, закадровый) Михалев
Перевод 6: Авторский (одноголосый, закадровый) Иванов
Cубтитры: английские
Оригинальная аудиодорожка: английский-Режиссер: Майкл Ритчи / Michael Ritchie-В ролях: Дэн Эйкройд, Уолтер Маттау, Чарльз Гродин, Донна Диксон, Ричард Романус, Мэри Гросс, Дэвид Кленнон, Майкл ДеЛоренцо, Микки Джонс-Описание:
Барнс, осужденный за компьютерное мошенничество, сбегает из психиатрического отделения тюрьмы, узнав, что его могут признать нормальным и послать отбывать срок в зону строгого режима. Он отправляется в Лос-Анджелес и, выдав себя за своего тюремного психиатра, устраивается на работу — подменяет ведущего психотерапевтической программы доктора Мэйтлина, отосланного на лечение в Европу. Барнс успешно водит за нос и работодателей, и аудиторию, и вместе с другим бывшим пациентом психбольницы Бекером ставит всех на уши своим эксцентричным поведением. А популярность радиопрограммы благодаря участию Барнса заметно вырастает. Разъяренный этим, доктор Мэйтлин хочет отомстить...-Сэмпл: Скачать-Тип релиза: WEB-DL 720p
Контейнер: MKV-Видео: 1280x692 (1.85:1); 4000 Kbps; 23.976 fps; 0.249 bpp
Аудио 1: Russian; AC3; 48.0 KHz; 2ch; 192 Kbps Dub Синхрон
Аудио 2: Russian; AC3; 48.0 KHz; 2ch; 192 Kbps MVO Петербург 5 Канал
Аудио 3: Russian; AC3; 48.0 KHz; 2ch; 192 Kbps DVO НТВ+
Аудио 4: Russian; AC3; 48.0 KHz; 2ch; 192 Kbps DVO Екатеринбург Арт
Аудио 5: Russian; AC3; 48.0 KHz; 2ch; 192 Kbps AVO Михалев
Аудио 6: Russian; AC3; 48.0 KHz; 2ch; 192 Kbps AVO Иванов
Аудио 7: English; AAC; 48.0 KHz; 2ch; 160 Kbps
MediaInfo
Format : Matroska
Format version : Version 4 / Version 2
File size : 3.54 GiB
Duration : 1h 38mn
Overall bit rate : 5 166 Kbps
Encoded date : UTC 2015-07-24 14:59:29
Writing application : mkvmerge v8.1.0 ('Psychedelic Postcard') 64bit
Writing library : libebml v1.3.1 + libmatroska v1.4.2
Attachements : poster.jpg
DURATION : 01:37:57.952000000
NUMBER_OF_FRAMES : 183686
NUMBER_OF_BYTES : 141070848
_STATISTICS_WRITING_APP : mkvmerge v8.1.0 ('Psychedelic Postcard') 64bit
_STATISTICS_WRITING_DATE_UTC : 2015-07-24 14:59:29
_STATISTICS_TAGS : BPS DURATION NUMBER_OF_FRAMES NUMBER_OF_BYTES
Video
ID : 1
Format : AVC
Format/Info : Advanced Video Codec
Format profile : High@L3.1
Format settings, CABAC : No
Format settings, ReFrames : 2 frames
Codec ID : V_MPEG4/ISO/AVC
Duration : 1h 38mn
Width : 1 280 pixels
Height : 692 pixels
Display aspect ratio : 1.85:1
Frame rate mode : Constant
Frame rate : 23.976 fps
Color space : YUV
Chroma subsampling : 4:2:0
Bit depth : 8 bits
Scan type : Progressive
Language : English
Default : Yes
Forced : No
Color primaries : BT.709
Transfer characteristics : BT.709
Matrix coefficients : BT.709
Audio #1
ID : 2
Format : AC-3
Format/Info : Audio Coding 3
Mode extension : CM (complete main)
Format settings, Endianness : Big
Codec ID : A_AC3
Duration : 1h 38mn
Bit rate mode : Constant
Bit rate : 192 Kbps
Channel(s) : 2 channels
Channel positions : Front: L R
Sampling rate : 48.0 KHz
Bit depth : 16 bits
Compression mode : Lossy
Stream size : 135 MiB (4%)
Title : Dub Синхрон
Language : Russian
Default : Yes
Forced : No
Audio #2
ID : 3
Format : AC-3
Format/Info : Audio Coding 3
Mode extension : CM (complete main)
Format settings, Endianness : Big
Codec ID : A_AC3
Duration : 1h 38mn
Bit rate mode : Constant
Bit rate : 192 Kbps
Channel(s) : 2 channels
Channel positions : Front: L R
Sampling rate : 48.0 KHz
Bit depth : 16 bits
Compression mode : Lossy
Stream size : 135 MiB (4%)
Title : MVO Петербург 5 Канал
Language : Russian
Default : No
Forced : No
Audio #3
ID : 4
Format : AC-3
Format/Info : Audio Coding 3
Mode extension : CM (complete main)
Format settings, Endianness : Big
Codec ID : A_AC3
Duration : 1h 38mn
Bit rate mode : Constant
Bit rate : 192 Kbps
Channel(s) : 2 channels
Channel positions : Front: L R
Sampling rate : 48.0 KHz
Bit depth : 16 bits
Compression mode : Lossy
Stream size : 135 MiB (4%)
Title : DVO НТВ+
Language : Russian
Default : No
Forced : No
Audio #4
ID : 5
Format : AC-3
Format/Info : Audio Coding 3
Mode extension : CM (complete main)
Format settings, Endianness : Big
Codec ID : A_AC3
Duration : 1h 38mn
Bit rate mode : Constant
Bit rate : 192 Kbps
Channel(s) : 2 channels
Channel positions : Front: L R
Sampling rate : 48.0 KHz
Bit depth : 16 bits
Compression mode : Lossy
Stream size : 135 MiB (4%)
Title : DVO Екатеринбург Арт
Language : Russian
Default : No
Forced : No
Audio #5
ID : 6
Format : AC-3
Format/Info : Audio Coding 3
Mode extension : CM (complete main)
Format settings, Endianness : Big
Codec ID : A_AC3
Duration : 1h 38mn
Bit rate mode : Constant
Bit rate : 192 Kbps
Channel(s) : 2 channels
Channel positions : Front: L R
Sampling rate : 48.0 KHz
Bit depth : 16 bits
Compression mode : Lossy
Stream size : 135 MiB (4%)
Title : AVO Михалев
Language : Russian
Default : No
Forced : No
Audio #6
ID : 7
Format : AC-3
Format/Info : Audio Coding 3
Mode extension : CM (complete main)
Format settings, Endianness : Big
Codec ID : A_AC3
Duration : 1h 38mn
Bit rate mode : Constant
Bit rate : 192 Kbps
Channel(s) : 2 channels
Channel positions : Front: L R
Sampling rate : 48.0 KHz
Bit depth : 16 bits
Compression mode : Lossy
Stream size : 135 MiB (4%)
Title : AVO Иванов
Language : Russian
Default : No
Forced : No
Audio #7
ID : 8
Format : AAC
Format/Info : Advanced Audio Codec
Format profile : LC
Codec ID : A_AAC
Duration : 1h 38mn
Channel(s) : 2 channels
Channel positions : Front: L R
Sampling rate : 48.0 KHz
Compression mode : Lossy
Language : English
Default : No
Forced : No
Text
ID : 9
Format : UTF-8
Codec ID : S_TEXT/UTF8
Codec ID/Info : UTF-8 Plain Text
Language : English
Default : Yes
Forced : No
HDTV vs WEB-DL Скриншоты
Скачать

Скачать торрент!

Как скачивать? · Что такое торрент? · Рейтинг и ограничения

Сайт не распространяет и не хранит электронные версии произведений, а лишь предоставляет доступ к создаваемому пользователями каталогу ссылок на торрент-файлы, которые содержат только списки хеш-сумм

[Профиль] [ЛС]
Показать сообщения:    
Ответить на тему

Текущее время: Сегодня 00:13

Часовой пояс: GMT + 4



Вы не можете начинать темы
Вы не можете отвечать на сообщения
Вы не можете редактировать свои сообщения
Вы не можете удалять свои сообщения
Вы не можете голосовать в опросах
Вы не можете прикреплять файлы к сообщениям
Вы не можете скачивать файлы