Скандинавский форсаж / Børning (Халлвард Браэин / Hallvard Bræin) [2014, Норвегия, боевик, комедия, WEB-DL 720p] Dub (iTunes Russia)

Ответить на тему
 
Автор Сообщение

user ®

Стаж: 7 лет 7 месяцев

Сообщений: 20008

Пост Пост: #1 от 21-Сен-2015 17:12

[Цитировать]

Скандинавский форсаж / Børning
Страна: Норвегия
Студия: Filmkameratene A/S
Жанр: боевик, комедия
Год выпуска: 2014
Продолжительность: 01:33:11
Перевод: Профессиональный (дублированный) iTunes Russia
Cубтитры: нет
Оригинальная аудиодорожка: нет
Режиссер: Халлвард Браэин / Hallvard Bræin
В ролях: Ларс Аренц-Хансен, Андерс Баасмо Кристиансен, Камилла Фрэй, Марсело Галван, Тронд Хальбо, Отто Есперсен, Оскар Шандвен Лундеволд, Хенрик Местад, Свен Нордин, Стейнар Саген
Описание: У Роя одна, но пламенная страсть – гонки. И как раз, когда он готовится к важному соревнованию, на горизонте появляется 14-летняя дочь, требующая к себе повышенного внимания. Увлекшись выяснением отношений с ребенком, Рой проигрывает заезд, и теперь у него только один шанс восстановить свою репутацию – участие в гонке «Северный Мыс». Кто первым доберется из Осло до самой северной точки Норвегии, тот и будет признан величайшим гонщиком всех времен и народов…
Доп. информация: Сохранены оригинальные главы. Исходный WEB-DL куплен в рамках сервиса "Копилка".


Сэмпл: http://sendfile.su/1156351
Тип релиза: WEB-DL 720p
Контейнер: MKV
Видео: 1280x534 at 24.000 fps (True24p), MPEG-4 AVC, ~4000 kbps avg
Аудио: RUS | 48 kHz, AC3, 3/2 (L,C,R,l,r) + LFE ch, ~384.00 kbps avg | Дубляж, iTunes Russia
MediaInfo
General
Unique ID : 250749090165349752584577234480326552566 (0xBCA484A404D86037860E5C39EF18ABF6)
Complete name : D:\Borning.2014.720p.WEB-DL.Rus.HDCLUB.mkv
Format : Matroska
Format version : Version 2
File size : 2.81 GiB
Duration : 1h 33mn
Overall bit rate : 4 323 Kbps
Movie name : Børning (2014) - Release for HDCLUB
Encoded date : UTC 2015-08-24 07:07:36
Writing application : mkvmerge v3.4.0 ('Rapunzel') built on May 15 2010 09:38:20
Writing library : libebml v0.8.0 + libmatroska v0.9.0
Video
ID : 1
Format : AVC
Format/Info : Advanced Video Codec
Format profile : Main@L3.1
Format settings, CABAC : No
Format settings, ReFrames : 2 frames
Codec ID : V_MPEG4/ISO/AVC
Duration : 1h 33mn
Bit rate : 3 853 Kbps
Width : 1 280 pixels
Height : 534 pixels
Display aspect ratio : 2.40:1
Frame rate mode : Constant
Frame rate : 24.000 fps
Color space : YUV
Chroma subsampling : 4:2:0
Bit depth : 8 bits
Scan type : Progressive
Bits/(Pixel*Frame) : 0.235
Stream size : 2.51 GiB (89%)
Title : Børning (2014) - Release for HDCLUB
Language : English
Default : Yes
Forced : No
Color range : Limited
Color primaries : BT.709
Transfer characteristics : BT.709
Matrix coefficients : BT.709
Audio
ID : 2
Format : AC-3
Format/Info : Audio Coding 3
Mode extension : CM (complete main)
Format settings, Endianness : Big
Codec ID : A_AC3
Duration : 1h 33mn
Bit rate mode : Constant
Bit rate : 384 Kbps
Channel(s) : 6 channels
Channel positions : Front: L C R, Side: L R, LFE
Sampling rate : 48.0 KHz
Compression mode : Lossy
Stream size : 256 MiB (9%)
Title : AC3 5.1 @ 384 kbps - DUB, iTunes
Language : Russian
Default : Yes
Forced : No
Menu
00:00:00.000 : en:1
00:05:55.000 : en:2
00:10:47.000 : en:3
00:14:43.000 : en:4
00:20:27.000 : en:5
00:26:25.000 : en:6
00:31:51.000 : en:7
00:36:23.000 : en:8
00:42:03.000 : en:9
00:49:24.000 : en:10
00:55:07.000 : en:11
01:00:22.000 : en:12
01:06:28.000 : en:13
01:11:05.000 : en:14
01:16:02.000 : en:15
01:21:39.000 : en:16
01:26:53.000 : en:17
Скриншоты
Скачать

Скачать торрент!

Как скачивать? · Что такое торрент? · Рейтинг и ограничения

Сайт не распространяет и не хранит электронные версии произведений, а лишь предоставляет доступ к создаваемому пользователями каталогу ссылок на торрент-файлы, которые содержат только списки хеш-сумм

[Профиль] [ЛС]
Показать сообщения:    
Ответить на тему

Текущее время: Сегодня 02:16

Часовой пояс: GMT + 4



Вы не можете начинать темы
Вы не можете отвечать на сообщения
Вы не можете редактировать свои сообщения
Вы не можете удалять свои сообщения
Вы не можете голосовать в опросах
Вы не можете прикреплять файлы к сообщениям
Вы не можете скачивать файлы