В первый раз / Я поцеловал девушку / Toute premiere fois / I kissed a girl (Максим Говаре, Ноеми Саглио / Maxime Govare, Noémie Saglio) [2015, Франция, комедия, BDRip 1080p] DVO (2D) + Sub Rus + Original Fre

Ответить на тему
 
Автор Сообщение

user ®

Стаж: 7 лет 7 месяцев

Сообщений: 20008

Пост Пост: #1 от 21-Сен-2015 14:06

[Цитировать]

В первый раз / Я поцеловал девушку / Toute premiere fois / I kissed a girl
Страна: Франция
Жанр: комедия
Год выпуска: 2015
Продолжительность: 01:31:29
Перевод: Любительский (двухголосый закадровый) 2D
Cубтитры: русские (форсированные), русские (полные)
Оригинальная аудиодорожка: французский
Режиссер: Максим Говаре, Ноеми Саглио / Maxime Govare, Noémie Saglio
В ролях: Пио Мармай, Франк Гастамбид, Adrianna Gradziel, Ланник Готри, Камилль Коттин, Фредерик Пьеро, Изабель Канделье, Николь Феррони, Etienne Guiraud, Себастьен Кастро
Описание: Жереми просыпается в постели с очаровательной блондинкой. Казалось бы, невозможная для него ситуация - ведь он гей и собирается замуж за своего давнего бойфренда. Но Адна не выходит у него из головы и вскоре Жереми понимает, что по уши влюбился в девушку. Теперь ему придётся бросить Антуана и признаваться родным и друзьям в нормальной ориентации, что в современном толерантном обществе будет воспринято неоднозначно.
Но настоящая любовь преодолеет всё.

Доп. информация:
Озвучка: NeigeMort & Daniel
Перевод: Antoine
Работа со звуком: Bif Tennet
По заказу: dmvolkov
Сэмпл: http://multi-up.com/1066959
Тип релиза: BDRip 1080p
Контейнер: MKV
Видео: MPEG4 Video (H264) 1920x800 24fps 8 757 Kbps
Аудио 1: Dolby AC3 48000Hz 6ch 384kbps [русский]
Аудио 2: DTS 48000Hz 6ch 1536kbps [французский]
Формат субтитров: softsub (SRT)
MediaInfo
General
Unique ID : 197702856028563926168184102666044363373 (0x94BC2F5F8B268C788287D14BCF26D26D)
Complete name : D:\TORRENTS\Toute.Premiere.Fois.1080p.DVO.mkv
Format : Matroska
Format version : Version 4 / Version 2
File size : 6.79 GiB
Duration : 1h 31mn
Overall bit rate : 10.6 Mbps
Encoded date : UTC 2015-09-11 15:40:58
Writing application : mkvmerge v8.3.0 ('Over the Horizon') 32bit
Writing library : libebml v1.3.1 + libmatroska v1.4.2
DURATION : 01:30:03.441000000
NUMBER_OF_FRAMES : 1156
NUMBER_OF_BYTES : 61835
_STATISTICS_WRITING_APP : mkvmerge v8.3.0 ('Over the Horizon') 32bit
_STATISTICS_WRITING_DATE_UTC : 2015-09-11 15:40:58
_STATISTICS_TAGS : BPS DURATION NUMBER_OF_FRAMES NUMBER_OF_BYTES
Video
ID : 1
Format : AVC
Format/Info : Advanced Video Codec
Format profile : High@L4.1
Format settings, CABAC : Yes
Format settings, ReFrames : 5 frames
Codec ID : V_MPEG4/ISO/AVC
Duration : 1h 31mn
Bit rate : 8 757 Kbps
Width : 1 920 pixels
Height : 800 pixels
Display aspect ratio : 2.40:1
Frame rate mode : Constant
Frame rate : 24.000 fps
Color space : YUV
Chroma subsampling : 4:2:0
Bit depth : 8 bits
Scan type : Progressive
Bits/(Pixel*Frame) : 0.238
Stream size : 5.45 GiB (80%)
Writing library : x264 core 146 r2538 121396c
Encoding settings : cabac=1 / ref=5 / deblock=1:1:1 / analyse=0x3:0x133 / me=umh / subme=7 / psy=1 / psy_rd=1.00:0.00 / mixed_ref=1 / me_range=16 / chroma_me=1 / trellis=1 / 8x8dct=1 / cqm=0 / deadzone=21,11 / fast_pskip=0 / chroma_qp_offset=-2 / threads=12 / lookahead_threads=2 / sliced_threads=0 / nr=0 / decimate=1 / interlaced=0 / bluray_compat=0 / constrained_intra=0 / bframes=3 / b_pyramid=2 / b_adapt=2 / b_bias=0 / direct=3 / weightb=1 / open_gop=0 / weightp=2 / keyint=240 / keyint_min=24 / scenecut=40 / intra_refresh=0 / rc_lookahead=50 / rc=2pass / mbtree=1 / bitrate=8757 / ratetol=1.0 / qcomp=0.60 / qpmin=0 / qpmax=69 / qpstep=4 / cplxblur=20.0 / qblur=0.5 / ip_ratio=1.40 / aq=1:1.00
Language : French
Default : Yes
Forced : No
Audio #1
ID : 2
Format : AC-3
Format/Info : Audio Coding 3
Mode extension : CM (complete main)
Format settings, Endianness : Big
Codec ID : A_AC3
Duration : 1h 31mn
Bit rate mode : Constant
Bit rate : 384 Kbps
Channel(s) : 6 channels
Channel positions : Front: L C R, Side: L R, LFE
Sampling rate : 48.0 KHz
Compression mode : Lossy
Stream size : 251 MiB (4%)
Title : DVO
Language : Russian
Default : Yes
Forced : Yes
Audio #2
ID : 3
Format : DTS
Format/Info : Digital Theater Systems
Mode : 16
Format settings, Endianness : Big
Codec ID : A_DTS
Duration : 1h 31mn
Bit rate mode : Constant
Bit rate : 1 509 Kbps
Channel(s) : 6 channels
Channel positions : Front: L C R, Side: L R, LFE
Sampling rate : 48.0 KHz
Bit depth : 24 bits
Compression mode : Lossy
Stream size : 987 MiB (14%)
Title : Original
Language : French
Default : No
Forced : No
Text #1
ID : 4
Format : UTF-8
Codec ID : S_TEXT/UTF8
Codec ID/Info : UTF-8 Plain Text
Title : forsed subtitles
Language : Russian
Default : Yes
Forced : Yes
Text #2
ID : 5
Format : UTF-8
Codec ID : S_TEXT/UTF8
Codec ID/Info : UTF-8 Plain Text
Title : full subtitles
Language : Russian
Default : No
Forced : No
Menu
00:00:00.000 : en:00:00:00.000
00:07:20.875 : en:00:07:20.875
00:14:01.625 : en:00:14:01.625
00:22:09.333 : en:00:22:09.333
00:28:58.333 : en:00:28:58.333
00:38:02.583 : en:00:38:02.583
00:46:03.958 : en:00:46:03.958
00:54:50.083 : en:00:54:50.083
01:01:43.917 : en:01:01:43.917
01:09:31.333 : en:01:09:31.333
01:16:23.708 : en:01:16:23.708
01:21:56.292 : en:01:21:56.292
Скриншоты
Скачать

Скачать торрент!

Как скачивать? · Что такое торрент? · Рейтинг и ограничения

Сайт не распространяет и не хранит электронные версии произведений, а лишь предоставляет доступ к создаваемому пользователями каталогу ссылок на торрент-файлы, которые содержат только списки хеш-сумм

[Профиль] [ЛС]
Показать сообщения:    
Ответить на тему

Текущее время: Сегодня 12:08

Часовой пояс: GMT + 4



Вы не можете начинать темы
Вы не можете отвечать на сообщения
Вы не можете редактировать свои сообщения
Вы не можете удалять свои сообщения
Вы не можете голосовать в опросах
Вы не можете прикреплять файлы к сообщениям
Вы не можете скачивать файлы