Далекие мечты / Promised Land (Майкл Хоффман / Michael Hoffman) [1987, США, Великобритания, драма, WEB-DL 720p] DVO + Sub Eng + Original Eng

Ответить на тему
 
Автор Сообщение

user ®

Стаж: 7 лет 7 месяцев

Сообщений: 20008

Пост Пост: #1 от 21-Сен-2015 14:06

[Цитировать]

Далекие мечты / Promised Land
Страна: США, Великобритания
Студия: Great American Films Limited Partnership, The Oxford Film Company и др.
Жанр: драма
Год выпуска: 1987
Продолжительность: 01:42:24
Перевод: Профессиональный (двухголосый закадровый) R5
Cубтитры: английские
Оригинальная аудиодорожка: английский
Режиссер: Майкл Хоффман / Michael Hoffman
В ролях: Джейсон Гедрик, Трэйси Поллан, Кифер Сазерленд, Мэг Райан, Терон Рид, Джеймс Кэш, Фентон Куинн-мл., Дороти Конрад, Гуги Гресс, Грант Готтшалл, Дебора Рихтер, Оскар Роулэнд, Сандра Сикэт, Джей Андервуд, Херта Уэйр, Синди Кларк, Чарльз Блэк
Описание: Под Рождество в своем родном городке встречаются старые школьные друзья. За их плечами — несбывшиеся надежды и разочарования. Красавец Дэйви, лучший баскетболист в школе, стал полицейским. Его друг Дэнни, отправившийся искать счастья в неизвестном направлении, возвращается так ничего и не добившись, но с полусумасшедшей женой. Она и толкает Дэнни на ограбление магазина. Если бы Дэнни знал, чем это обернется…

Sample
Тип релиза: WEB-DL 720p
Контейнер: MKV
Видео: MPEG4 AVC Video, H264, 16:9, 1280x720, 23.976 fps, 3978 kbps
Аудио: Russian (AC3, 2 ch, 192 kbps, 16 bits, 48.0 KHz) - DVO
Аудио 2: English (AC3, 2 ch, 192 kbps, 16 bits, 48.0 KHz) - оригинал
Формат субтитров: softsub (SRT)

MediaInfo
General
Unique ID : 232003201702186744302570824175939707192 (0xAE8A30FB57E676CEA3C018C42F0F6138)
Complete name : K:\Promised Land 1987 WEB-DL 720p.mkv
Format : Matroska
Format version : Version 4 / Version 2
File size : 3.18 GiB
Duration : 1h 42mn
Overall bit rate : 4 451 Kbps
Encoded date : UTC 2015-09-17 21:05:48
Writing application : mkvmerge v6.1.0 ('Old Devil') built on Mar 2 2013 14:32:37
Writing library : libebml v1.3.0 + libmatroska v1.4.0
Video
ID : 1
Format : AVC
Format/Info : Advanced Video Codec
Format profile : High@L3.1
Format settings, CABAC : No
Format settings, ReFrames : 2 frames
Codec ID : V_MPEG4/ISO/AVC
Duration : 1h 42mn
Bit rate : 3 978 Kbps
Width : 1 280 pixels
Height : 720 pixels
Display aspect ratio : 16:9
Frame rate mode : Constant
Frame rate : 23.976 fps
Color space : YUV
Chroma subsampling : 4:2:0
Bit depth : 8 bits
Scan type : Progressive
Bits/(Pixel*Frame) : 0.180
Stream size : 2.85 GiB (89%)
Language : English
Default : Yes
Forced : No
Color primaries : BT.709
Transfer characteristics : BT.709
Matrix coefficients : BT.709
Audio #1
ID : 2
Format : AC-3
Format/Info : Audio Coding 3
Mode extension : CM (complete main)
Format settings, Endianness : Big
Codec ID : A_AC3
Duration : 1h 42mn
Bit rate mode : Constant
Bit rate : 192 Kbps
Channel count : 2 channels
Channel positions : Front: L R
Sampling rate : 48.0 KHz
Bit depth : 16 bits
Compression mode : Lossy
Stream size : 141 MiB (4%)
Language : Russian
Default : Yes
Forced : No
Audio #2
ID : 3
Format : AC-3
Format/Info : Audio Coding 3
Mode extension : CM (complete main)
Format settings, Endianness : Big
Codec ID : A_AC3
Duration : 1h 42mn
Bit rate mode : Constant
Bit rate : 192 Kbps
Channel count : 2 channels
Channel positions : Front: L R
Sampling rate : 48.0 KHz
Bit depth : 16 bits
Compression mode : Lossy
Stream size : 141 MiB (4%)
Language : English
Default : No
Forced : No
Text
ID : 4
Format : UTF-8
Codec ID : S_TEXT/UTF8
Codec ID/Info : UTF-8 Plain Text
Language : English
Default : No
Forced : No
Скриншоты
Скачать

Скачать торрент!

Как скачивать? · Что такое торрент? · Рейтинг и ограничения

Сайт не распространяет и не хранит электронные версии произведений, а лишь предоставляет доступ к создаваемому пользователями каталогу ссылок на торрент-файлы, которые содержат только списки хеш-сумм

[Профиль] [ЛС]
Показать сообщения:    
Ответить на тему

Текущее время: Сегодня 20:34

Часовой пояс: GMT + 4



Вы не можете начинать темы
Вы не можете отвечать на сообщения
Вы не можете редактировать свои сообщения
Вы не можете удалять свои сообщения
Вы не можете голосовать в опросах
Вы не можете прикреплять файлы к сообщениям
Вы не можете скачивать файлы