Охота на Веронику / Veronica Guerin (Джоэл Шумахер / Joel Schumacher) [2003, Ирландия, Великобритания, США, триллер, драма, криминал, биография, WEB-DL 720p] 2x MVO + Sub Rus, Eng + Original Eng

Ответить на тему
 
Автор Сообщение

user ®

Стаж: 7 лет 7 месяцев

Сообщений: 20008

Пост Пост: #1 от 21-Сен-2015 14:06

[Цитировать]

Охота на Веронику / Veronica Guerin
Страна: Ирландия, Великобритания, США
Студия: Touchstone Pictures, Jerry Bruckheimer Films, Persevere Productions Ltd.
Жанр: триллер, драма, криминал, биография
Год выпуска: 2003
Продолжительность: 01:38:17
Перевод: Профессиональный (многоголосый закадровый) R5
Перевод 2: Профессиональный (многоголосый закадровый) 1 канал
Cубтитры: русские, английские
Оригинальная аудиодорожка: английский
Режиссер: Джоэл Шумахер / Joel Schumacher
В ролях: Кейт Бланшетт, Джерард МакСорли, Киаран Хиндс, Бренда Фрикер, Дон Вичерли, Бэрри Барнс, Simon O'Driscoll, Эммет Бергин, Шарлотта Брэдли, Марк Лэмберт…
Описание: Середина 90-х. В Ирландии идет настоящая война католиков и протестантов. Ситуация осложняется разборками среди местных наркобаронов. Всю страшную правду о преступлениях люди узнают не от полиции и государственных чиновников, а от бесстрашной журналистки независимого издания Вероники Герин. Рискуя карьерой, жизнью и семьей, она добывает самые достоверные факты. Однако ее статьи не по нраву подпольным наркодилерам, и на нее открывают настоящую охоту. Но с каждым новым покушением Вероника становится все более популярной…
II Сэмпл II IMDB II
Доп. информация:
За дорогу 1 канала спасибо miha2154
За многоголоску R5 спасибо Jotnar
Тип релиза: WEB-DL 720p
Контейнер: MKV
Видео: AVC / 1280x546 / 2.35:1 / 23.976fps / Bit rate 3849Kbps
Аудио 1: AC3 / 48.0 KHz / 6ch. / 384kbps / rus / mvo / R5
Аудио 2: AC3 / 48.0 KHz / 2ch. / 192kbps / rus / mvo / 1 канал
Аудио 3: AC3 / 48.0 KHz / 6ch. / 448kbps / eng / DVD
Аудио 4: AAC-LC / 48.0 KHz / 2ch. / 104kbps / eng / WEB-DL.720p
Формат субтитров: softsub (SRT)
MediaInfo
Общее
Уникальный идентификатор : 253149504395709568786799470855632773113 (0xBE72D2331A0269C08970CE08A74CDFF9)
Полное имя : H:\!_Torrent\Veronica.Guerin.2003.WEB-DL.720p_by_vedigo.mkv
Формат : Matroska
Версия формата : Version 4 / Version 2
Размер файла : 3,47 Гбайт
Продолжительность : 1 ч. 38 м.
Общий поток : 5056 Кбит/сек
Название фильма : Veronica.Guerin.2003.WEB-DL.720p_by_vedigo
Дата кодирования : UTC 2015-09-18 11:01:31
Программа кодирования : mkvmerge v8.3.0 ('Over the Horizon') 64bit
Библиотека кодирования : libebml v1.3.1 + libmatroska v1.4.2
DURATION : 01:32:45.607000000
NUMBER_OF_FRAMES : 895
NUMBER_OF_BYTES : 62314
_STATISTICS_WRITING_APP : mkvmerge v8.3.0 ('Over the Horizon') 64bit
_STATISTICS_WRITING_DATE_UTC : 2015-09-18 11:01:31
_STATISTICS_TAGS : BPS DURATION NUMBER_OF_FRAMES NUMBER_OF_BYTES
Видео
Идентификатор : 1
Формат : AVC
Формат/Информация : Advanced Video Codec
Профиль формата : High@L3.1
Параметр CABAC формата : Нет
Параметр ReFrames формата : 2 кадра
Идентификатор кодека : V_MPEG4/ISO/AVC
Продолжительность : 1 ч. 38 м.
Ширина : 1280 пикселей
Высота : 546 пикселей
Соотношение сторон : 2,35:1
Режим частоты кадров : Постоянный
Частота кадров : 23,976 кадра/сек
Цветовое пространство : YUV
Субдискретизация насыщенности : 4:2:0
Битовая глубина : 8 бит
Тип развёртки : Прогрессивная
Заголовок : Veronica.Guerin.2003.WEB-DL.720p_by_vedigo
Язык : English
Default : Да
Forced : Нет
Цветовой диапазон : Limited
Основные цвета : BT.709
Характеристики трансфера : BT.709
Коэффициенты матрицы : BT.709
Аудио #1
Идентификатор : 2
Формат : AC-3
Формат/Информация : Audio Coding 3
Расширение режима : CM (complete main)
Параметр Endianness формата : Big
Идентификатор кодека : A_AC3
Продолжительность : 1 ч. 38 м.
Вид битрейта : Постоянный
Битрейт : 384 Кбит/сек
Каналы : 6 каналов
Расположение каналов : Front: L C R, Side: L R, LFE
Частота : 48,0 КГц
Метод сжатия : С потерями
Размер потока : 270 Мбайт (8%)
Заголовок : MVO @ R5
Язык : Russian
Default : Да
Forced : Нет
Аудио #2
Идентификатор : 3
Формат : AC-3
Формат/Информация : Audio Coding 3
Расширение режима : CM (complete main)
Параметр Endianness формата : Big
Идентификатор кодека : A_AC3
Продолжительность : 1 ч. 38 м.
Вид битрейта : Постоянный
Битрейт : 192 Кбит/сек
Каналы : 2 канала
Расположение каналов : Front: L R
Частота : 48,0 КГц
Метод сжатия : С потерями
Размер потока : 135 Мбайт (4%)
Заголовок : MVO @ 1 канал
Язык : Russian
Default : Нет
Forced : Нет
Аудио #3
Идентификатор : 4
Формат : AC-3
Формат/Информация : Audio Coding 3
Расширение режима : CM (complete main)
Параметр Endianness формата : Big
Идентификатор кодека : A_AC3
Продолжительность : 1 ч. 38 м.
Вид битрейта : Постоянный
Битрейт : 448 Кбит/сек
Каналы : 6 каналов
Расположение каналов : Front: L C R, Side: L R, LFE
Частота : 48,0 КГц
Метод сжатия : С потерями
Размер потока : 315 Мбайт (9%)
Заголовок : original @ DVD
Язык : English
Default : Нет
Forced : Нет
Аудио #4
Идентификатор : 5
Формат : AAC
Формат/Информация : Advanced Audio Codec
Профиль формата : LC
Идентификатор кодека : A_AAC
Продолжительность : 1 ч. 38 м.
Каналы : 2 канала
Расположение каналов : Front: L R
Частота : 48,0 КГц
Метод сжатия : С потерями
Заголовок : original @ WEB-DL.720p
Язык : English
Default : Нет
Forced : Нет
Текст #1
Идентификатор : 6
Формат : UTF-8
Идентификатор кодека : S_TEXT/UTF8
Идентификатор кодека/Информация : UTF-8 Plain Text
Заголовок : subtitle rus
Язык : Russian
Default : Нет
Forced : Нет
Текст #2
Идентификатор : 7
Формат : UTF-8
Идентификатор кодека : S_TEXT/UTF8
Идентификатор кодека/Информация : UTF-8 Plain Text
Заголовок : subtitle eng
Язык : English
Default : Нет
Forced : Нет
Скриншоты
Скачать

Скачать торрент!

Как скачивать? · Что такое торрент? · Рейтинг и ограничения

Сайт не распространяет и не хранит электронные версии произведений, а лишь предоставляет доступ к создаваемому пользователями каталогу ссылок на торрент-файлы, которые содержат только списки хеш-сумм

[Профиль] [ЛС]
Показать сообщения:    
Ответить на тему

Текущее время: Сегодня 15:50

Часовой пояс: GMT + 4



Вы не можете начинать темы
Вы не можете отвечать на сообщения
Вы не можете редактировать свои сообщения
Вы не можете удалять свои сообщения
Вы не можете голосовать в опросах
Вы не можете прикреплять файлы к сообщениям
Вы не можете скачивать файлы