Красный угол / Red Corner (Йон Авнет / Jon Avnet) [1997, США, драма, криминал WEB-DL 720p] 2x MVO (НТВ, Варус Видео) + DVO (НТВ+) + AVO (Живов) + 2x VO + Original (Eng) + Sub (Eng)

Ответить на тему
 
Автор Сообщение

user ®

Стаж: 7 лет 7 месяцев

Сообщений: 20008

Пост Пост: #1 от 21-Сен-2015 14:06

[Цитировать]

Красный угол / Red Corner
Страна: США
Жанр: драма, криминал
Год выпуска: 1997
Продолжительность: 02:02:17
Перевод 1: Профессиональный (двухголосый закадровый) НТВ+
Перевод 2: Профессиональный (многоголосый закадровый) НТВ
Перевод 3: Профессиональный (многоголосый закадровый) Варус Видео
Перевод 4: Аторский (одноголосый закадровый) Юрий Живов
Перевод 5: одноголосый закадровый (неизвестный)
Перевод 6: одноголосый закадровый (неизвестный)
Cубтитры: английские
Оригинальная аудиодорожка: английский
Режиссер: Йон Авнет / Jon Avnet
В ролях: Ричард Гир, Бай Линь, Брэдли Уитфорд, Байрон Манн, Питер Донэт, Роберт Стэнтон, Цай Чинь и др.
Описание:
О злоключениях американца Джека Мура - блестящего дипломата, лучшего специалиста по переговорам между Западом и Востоком, который приезжает в Китай, чтобы помочь китайскому правительству в организации спутниковой связи. Но после ночи, проведённой с экзотической красоткой, Джек оказывается в безвыходной ситуации. Его арестовывают за якобы совершенное убийство.
Доп. информация:
WEB-DL 720p@alfablac (СЭМПЛ)
[url=http://***/forum/viewtopic.php?t=3506561]НТВ+[/url] от [url=http://***/forum/profile.php?mode=viewprofile&u=4470372]SolarOlya[/url]
НТВ и Живов с [url=http://***/forum/viewtopic.php?t=2670864]раздачи[/url] от [url=http://***/forum/profile.php?mode=viewprofile&u=2244085]vasapel[/url]
За перевод Варус Видео огромная благодарность [url=http://***/forum/profile.php?mode=viewprofile&u=1556884]Кёниг[/url]
Оцифровки с неизвестными бойцами от меня и [url=http://***/forum/profile.php?mode=viewprofile&u=20564]Fikaloid'а[/url].

Отчет MediaInfo
Цитата:
General
Unique ID : 193978982819604126554914496052613098099 (0x91EEFE3FB1DD5F72B56EF4D3F1A82A73)
Complete name : G:\Red.Corner.1997.720p.WEB-DL.6xRus.Eng.mkv
Format : Matroska
Format version : Version 4 / Version 2
File size : 4.86 GiB
Duration : 2h 2mn
Overall bit rate : 5 688 Kbps
Movie name : Red Corner (1997)
Encoded date : UTC 2015-09-17 12:20:11
Writing application : mkvmerge v7.0.0 ('Where We Going') 32bit built on Jun 9 2014 15:08:34
Writing library : libebml v1.3.0 + libmatroska v1.4.1
DURATION : 02:02:17.920000000
NUMBER_OF_FRAMES : 229310
NUMBER_OF_BYTES : 176110080
_STATISTICS_WRITING_APP : mkvmerge v7.0.0 ('Where We Going') 32bit built on Jun 9 2014 15:08:34
_STATISTICS_WRITING_DATE_UTC : 2015-09-17 12:20:11
_STATISTICS_TAGS : BPS DURATION NUMBER_OF_FRAMES NUMBER_OF_BYTES
Video
ID : 1
Format : AVC
Format/Info : Advanced Video Codec
Format profile : High@L3.1
Format settings, CABAC : No
Format settings, ReFrames : 2 frames
Codec ID : V_MPEG4/ISO/AVC
Duration : 2h 2mn
Width : 1 280 pixels
Height : 680 pixels
Display aspect ratio : 1.882
Frame rate mode : Constant
Frame rate : 23.976 fps
Color space : YUV
Chroma subsampling : 4:2:0
Bit depth : 8 bits
Scan type : Progressive
Title : Red Corner (1997)
Language : English
Default : Yes
Forced : No
Color primaries : BT.709
Transfer characteristics : BT.709
Matrix coefficients : BT.709
Audio #1
ID : 2
Format : AC-3
Format/Info : Audio Coding 3
Mode extension : CM (complete main)
Format settings, Endianness : Big
Codec ID : A_AC3
Duration : 2h 2mn
Bit rate mode : Constant
Bit rate : 192 Kbps
Channel count : 2 channels
Channel positions : Front: L R
Sampling rate : 48.0 KHz
Bit depth : 16 bits
Compression mode : Lossy
Stream size : 168 MiB (3%)
Title : NTV+
Language : Russian
Default : Yes
Forced : No
Audio #2
ID : 3
Format : AC-3
Format/Info : Audio Coding 3
Mode extension : CM (complete main)
Format settings, Endianness : Big
Codec ID : A_AC3
Duration : 2h 2mn
Bit rate mode : Constant
Bit rate : 192 Kbps
Channel count : 2 channels
Channel positions : Front: L R
Sampling rate : 48.0 KHz
Bit depth : 16 bits
Compression mode : Lossy
Stream size : 168 MiB (3%)
Title : NTV
Language : Russian
Default : No
Forced : No
Audio #3
ID : 4
Format : AC-3
Format/Info : Audio Coding 3
Mode extension : CM (complete main)
Format settings, Endianness : Big
Codec ID : A_AC3
Duration : 2h 2mn
Bit rate mode : Constant
Bit rate : 192 Kbps
Channel count : 2 channels
Channel positions : Front: L R
Sampling rate : 48.0 KHz
Bit depth : 16 bits
Compression mode : Lossy
Stream size : 168 MiB (3%)
Title : Varus Video
Language : Russian
Default : No
Forced : No
Audio #4
ID : 5
Format : AC-3
Format/Info : Audio Coding 3
Mode extension : CM (complete main)
Format settings, Endianness : Big
Codec ID : A_AC3
Duration : 2h 2mn
Bit rate mode : Constant
Bit rate : 384 Kbps
Channel count : 6 channels
Channel positions : Front: L C R, Side: L R, LFE
Sampling rate : 48.0 KHz
Bit depth : 16 bits
Compression mode : Lossy
Stream size : 336 MiB (7%)
Title : Zjivov
Language : Russian
Default : No
Forced : No
Audio #5
ID : 6
Format : AC-3
Format/Info : Audio Coding 3
Mode extension : CM (complete main)
Format settings, Endianness : Big
Codec ID : A_AC3
Duration : 2h 2mn
Bit rate mode : Constant
Bit rate : 192 Kbps
Channel count : 2 channels
Channel positions : Front: L R
Sampling rate : 48.0 KHz
Bit depth : 16 bits
Compression mode : Lossy
Stream size : 168 MiB (3%)
Title : VO #1
Language : Russian
Default : No
Forced : No
Audio #6
ID : 7
Format : AC-3
Format/Info : Audio Coding 3
Codec ID : A_AC3
Duration : 2h 2mn
Channel count : 2 channels
Sampling rate : 48.0 KHz
Compression mode : Lossy
Title : VO #2
Language : Russian
Default : No
Forced : No
Audio #7
ID : 8
Format : AC-3
Format/Info : Audio Coding 3
Mode extension : CM (complete main)
Format settings, Endianness : Big
Codec ID : A_AC3
Duration : 2h 2mn
Bit rate mode : Constant
Bit rate : 384 Kbps
Channel count : 6 channels
Channel positions : Front: L C R, Side: L R, LFE
Sampling rate : 48.0 KHz
Bit depth : 16 bits
Compression mode : Lossy
Stream size : 336 MiB (7%)
Title : English
Language : English
Default : No
Forced : No
Text
ID : 9
Format : UTF-8
Codec ID : S_TEXT/UTF8
Codec ID/Info : UTF-8 Plain Text
Title : English
Language : English
Default : No
Forced : No
Качество: WEB-DL
Формат: MKV
Видео кодек: H.264
Аудио кодек: AC3
Видео: 1280x680; 23.976 fps, ~4000 kbps
Аудио:
1 - Dolby AC3; Rus; 48000Hz; 2ch; 192kbps [НТВ+] SATRip
2 - Dolby AC3; Rus; 48000Hz; 2ch; 192kbps [НТВ] TVRip
3 - Dolby AC3; Rus; 48000Hz; 2ch; 192kbps [Варус Видео] VHSRip
4 - Dolby AC3; Rus; 48000Hz; 6ch; 384kbps [Юрий Живов]
5 - Dolby AC3; Rus; 48000Hz; 2ch; 192kbps [неизвестный] VHSRip
6 - Dolby AC3; Rus; 48000Hz; 2ch; 192kbps [неизвестный] VHSRip
7 - Dolby AC3; Eng; 48000Hz; 6ch; 384kbps [оригинал] iTunes
скриншоты
Скачать

Скачать торрент!

Как скачивать? · Что такое торрент? · Рейтинг и ограничения

Сайт не распространяет и не хранит электронные версии произведений, а лишь предоставляет доступ к создаваемому пользователями каталогу ссылок на торрент-файлы, которые содержат только списки хеш-сумм

[Профиль] [ЛС]
Показать сообщения:    
Ответить на тему

Текущее время: Сегодня 13:50

Часовой пояс: GMT + 4



Вы не можете начинать темы
Вы не можете отвечать на сообщения
Вы не можете редактировать свои сообщения
Вы не можете удалять свои сообщения
Вы не можете голосовать в опросах
Вы не можете прикреплять файлы к сообщениям
Вы не можете скачивать файлы