Полтергейст / Poltergeist (Гил Кинан / Gil Kenan) [2015, США, Канада, ужасы, триллер, BDRip 720p] [Extended Cut] Dub (CEE) + Ukr + Original Eng + Sub Rus, Ukr, Eng

Ответить на тему
 
Автор Сообщение

user ®

Стаж: 7 лет 7 месяцев

Сообщений: 20008

Пост Пост: #1 от 21-Сен-2015 14:06

[Цитировать]

Полтергейст / Poltergeist
«They know what scares you»
Год выпуска: 2015
Страна: США, Канада
Производство: Fox 2000 Pictures, Ghost House Pictures, Metro-Goldwyn-Mayer (MGM), TSG Entertainment, Vertigo Entertainment
Жанр: Ужасы, триллер
Продолжительность: 01:40:53
Перевод: Профессиональный (дублированный) | CEE
Оригинальная аудиодорожка: Английский
Субтитры: Русские, украинские, английские
Режиссёр: Гил Кинан
В ролях: Сэм Рокуэлл, Розмари ДеУитт, Саксон Шарбино, Кайл Кэтлетт, Кеннеди Клементс, Джаред Харрис, Джейн Адамс, Сьюзэн Хэйард, Николас Браун, Карен Ивани и др.
Описание: Когда страшные призраки забирают младшую дочь, семье приходится объединиться, чтобы спасти ее...


CRiME
Сэмпл
Качество: BDRip 720p
Формат: MKV
Видео: MPEG-4 AVC: ~5344 kbps / 1280x534 / 23.976 fps / 2.40:1
Аудио: Russian: DTS / 5.1 / 48 kHz / 768 kbps / 24-bit | CEE
Аудио: Ukrainian: AC3 / 5.1 / 48 kHz / 448 kbps | CEE
Аудио: English: DTS / 5.1 / 48 kHz / 1509 kbps / 24-bit | Оригинальный
MediaInfoXP
GeneralUnique ID : 226303570525068998800980131009569443870 (0xAA407B77FC87DF89938CD751DAFB501E)Complete name : H:\Poltergeist.2015.Extended.720p.BluRay.Rus.Ukr.Eng.x264-CRiME.mkvFormat : MatroskaFormat version : Version 2File size : 5.77 GiBDuration : 1h 40mnOverall bit rate : 8 191 KbpsMovie name : Poltergeist (2015) [Extended Cut] - Release for HDCLUBEncoded date : UTC 2015-09-18 18:45:46Writing application : mkvmerge v3.4.0 ('Rapunzel') built on May 15 2010 09:38:20Writing library : libebml v0.8.0 + libmatroska v0.9.0
VideoID : 1Format : AVCFormat/Info : Advanced Video CodecFormat profile : High@L4.1Format settings, CABAC : YesFormat settings, ReFrames : 12 framesCodec ID : V_MPEG4/ISO/AVCDuration : 1h 40mnBit rate : 5 303 KbpsWidth : 1 280 pixelsHeight : 534 pixelsDisplay aspect ratio : 2.40:1Original display aspect ratio : 2.40:1Frame rate mode : ConstantFrame rate : 23.976 fpsColor space : YUVChroma subsampling : 4:2:0Bit depth : 8 bitsScan type : ProgressiveBits/(Pixel*Frame) : 0.324Stream size : 3.74 GiB (65%)Title : Poltergeist (2015) [Extended Cut] - Release for HDCLUBWriting library : x264 core 148 r2597 e86f3a1Encoding settings : cabac=1 / ref=12 / deblock=1:-3:-3 / analyse=0x3:0x133 / me=umh / subme=10 / psy=1 / psy_rd=1.00:0.00 / mixed_ref=1 / me_range=32 / chroma_me=1 / trellis=2 / 8x8dct=1 / cqm=0 / deadzone=21,11 / fast_pskip=0 / chroma_qp_offset=-2 / threads=6 / lookahead_threads=1 / sliced_threads=0 / nr=0 / decimate=0 / interlaced=0 / bluray_compat=0 / constrained_intra=0 / bframes=8 / b_pyramid=2 / b_adapt=2 / b_bias=0 / direct=3 / weightb=1 / open_gop=0 / weightp=2 / keyint=250 / keyint_min=24 / scenecut=40 / intra_refresh=0 / rc_lookahead=60 / rc=crf / mbtree=0 / crf=16.2 / qcomp=0.60 / qpmin=0 / qpmax=69 / qpstep=4 / vbv_maxrate=62500 / vbv_bufsize=78125 / crf_max=0.0 / nal_hrd=none / filler=0 / ip_ratio=1.27 / pb_ratio=1.18 / aq=3:0.70 / zones=22839,23650,crf=15.5/24938,26914,crf=15.5/29472,29515,crf=15.5/33117,33696,crf=15.5/34957,36648,crf=15.5/59615,62295,crf=15.5/63103,64452,crf=15.5/64783,65271,crf=15.5/65374,67438,crf=15.5/91641,94559,crf=15.5/113311,114468,crf=15.5/114990,115075,crf=15.5/115123,115500,crf=15.5/116528,116592,crf=15.5/118567,120038,crf=15.5/120493,120673,crf=15.5/125905,126491,crf=15.5/132470,132700,crf=15.5/136667,145133,crf=21Language : EnglishDefault : YesForced : No
Audio #1ID : 2Format : DTSFormat/Info : Digital Theater SystemsMode : 16Format settings, Endianness : BigCodec ID : A_DTSDuration : 1h 40mnBit rate mode : ConstantBit rate : 768 KbpsChannel(s) : 6 channelsChannel positions : Front: L C R, Side: L R, LFESampling rate : 48.0 KHzBit depth : 24 bitsCompression mode : LossyStream size : 554 MiB (9%)Title : DTS 5.1 @ 768 kbps - DUB, Blu-ray CEELanguage : RussianDefault : YesForced : No
Audio #2ID : 3Format : AC-3Format/Info : Audio Coding 3Mode extension : CM (complete main)Format settings, Endianness : BigCodec ID : A_AC3Duration : 1h 40mnBit rate mode : ConstantBit rate : 448 KbpsChannel(s) : 6 channelsChannel positions : Front: L C R, Side: L R, LFESampling rate : 48.0 KHzCompression mode : LossyStream size : 323 MiB (5%)Title : AC3 5.1 @ 448 kbps - DUB, Blu-ray CEELanguage : UkrainianDefault : NoForced : No
Audio #3ID : 4Format : DTSFormat/Info : Digital Theater SystemsFormat profile : ESMode : 16Format settings, Endianness : BigCodec ID : A_DTSDuration : 1h 40mnBit rate mode : ConstantBit rate : 1 509 KbpsChannel(s) : 6 channelsChannel positions : Front: L C R, Side: L R, LFESampling rate : 48.0 KHzBit depth : 24 bitsCompression mode : LossyDelay relative to video : 11msStream size : 1.06 GiB (18%)Title : DTS-ES 6.1 @ 1536 kbpsLanguage : EnglishDefault : NoForced : No
Text #1ID : 5Format : UTF-8Codec ID : S_TEXT/UTF8Codec ID/Info : UTF-8 Plain TextTitle : iTunesLanguage : RussianDefault : NoForced : No
Text #2ID : 6Format : UTF-8Codec ID : S_TEXT/UTF8Codec ID/Info : UTF-8 Plain TextTitle : iTunesLanguage : UkrainianDefault : NoForced : No
Text #3ID : 7Format : UTF-8Codec ID : S_TEXT/UTF8Codec ID/Info : UTF-8 Plain TextTitle : iTunesLanguage : EnglishDefault : NoForced : No
Menu00:00:00.000 : en:00:00:00.00000:04:57.339 : en:00:04:57.33900:09:55.929 : en:00:09:55.92900:16:26.444 : en:00:16:26.44400:20:31.730 : en:00:20:31.73000:22:34.228 : en:00:22:34.22800:26:31.006 : en:00:26:31.00600:30:01.883 : en:00:30:01.88300:35:06.354 : en:00:35:06.35400:37:27.662 : en:00:37:27.66200:41:41.624 : en:00:41:41.62400:46:55.104 : en:00:46:55.10400:49:56.618 : en:00:49:56.61800:53:41.134 : en:00:53:41.13401:00:08.480 : en:01:00:08.48001:04:28.323 : en:01:04:28.32301:06:42.498 : en:01:06:42.49801:09:39.592 : en:01:09:39.59201:12:37.353 : en:01:12:37.35301:16:06.186 : en:01:16:06.18601:19:36.563 : en:01:19:36.56301:25:23.076 : en:01:25:23.07601:29:56.558 : en:01:29:56.55801:35:01.779 : en:01:35:01.779
Скриншот с названием фильма
Название не показано.
Скриншоты
Скачать

Скачать торрент!

Как скачивать? · Что такое торрент? · Рейтинг и ограничения

Сайт не распространяет и не хранит электронные версии произведений, а лишь предоставляет доступ к создаваемому пользователями каталогу ссылок на торрент-файлы, которые содержат только списки хеш-сумм

[Профиль] [ЛС]
Показать сообщения:    
Ответить на тему

Текущее время: Сегодня 09:53

Часовой пояс: GMT + 4



Вы не можете начинать темы
Вы не можете отвечать на сообщения
Вы не можете редактировать свои сообщения
Вы не можете удалять свои сообщения
Вы не можете голосовать в опросах
Вы не можете прикреплять файлы к сообщениям
Вы не можете скачивать файлы