Зов плоти / Booty Call (Джефф Поллак / Jeff Pollack) [1997, США, комедия, мелодрама, WEB-DL 1080p] MVO (Видеосервис) + Sub Eng + Original Eng

Ответить на тему
 
Автор Сообщение

user ®

Стаж: 7 лет 7 месяцев

Сообщений: 20008

Пост Пост: #1 от 21-Сен-2015 14:06

[Цитировать]

Зов плоти / Booty Call
Страна: США
Студия: Columbia Pictures Corporation, Turman-Morrissey Company
Жанр: комедия, мелодрама
Год выпуска: 1997
Продолжительность: 01:19:17
Перевод: Профессиональный (многоголосый закадровый) Видеосервис (VHS)
Cубтитры: английские
Оригинальная аудиодорожка: английский
Режиссер: Джефф Поллак / Jeff Pollack
В ролях: Джэми Фокс, Томми Дэвидсон, Эми Моника Уоддэлл, Уайли Мур, Вивика А. Фокс, Тамала Джонс, Кэм Рэй Чан, Рик Янг, Ammie Sin, Скотт ЛаРоуз...
Описание: У двух приятелей одно хобби — женщины. Каждый вечер они выезжают на поиски новых «жертв», каждый вечер победы и ни одного поражения. Но вот однажды, отправившись на очередную вылазку, они попадают в дурацкое положение — есть и новые подружки, и жизнь прекрасна, но нет главного — презервативов!
Выход? Пойти и купить где-нибудь поблизости. Но глубокой ночью это оказывается не так просто — все магазины и аптеки закрыты. Вот тут то и начинается поиск резиновых изделий, превращающийся в поток самых невероятных приключений.
II Сэмпл II IMDB II
Доп. информация:
За русскую дорогу спасибо spartac
Тип релиза: WEB-DL 1080p
Контейнер: MKV
Видео: AVC / 1916x1074 / 16:9 / 23.976fps / Bit rate 5167Kbps
Аудио 1: AC3 / 48.0 KHz / 2ch. / 192kbps / rus / mvo / Видеосервис (VHS)
Аудио 2: AC3 / 48.0 KHz / 6ch. / 384kbps / eng
Формат субтитров: softsub (SRT)
MediaInfo
Общее
Уникальный идентификатор : 248846061518294289159370301296475997992 (0xBB360215999F13FEB5DEB088140D8728)
Полное имя : H:\!_Torrent\Booty.Call.1997.WEB-DL.1080p_by_vedigo.mkv
Формат : Matroska
Версия формата : Version 4 / Version 2
Размер файла : 3,25 Гбайт
Продолжительность : 1 ч. 19 м.
Общий поток : 5860 Кбит/сек
Название фильма : Booty.Call.1997.WEB-DL.1080p_by_vedigo
Дата кодирования : UTC 2015-09-19 02:14:43
Программа кодирования : mkvmerge v8.3.0 ('Over the Horizon') 64bit
Библиотека кодирования : libebml v1.3.1 + libmatroska v1.4.2
DURATION : 01:13:31.745000000
NUMBER_OF_FRAMES : 1244
NUMBER_OF_BYTES : 40804
_STATISTICS_WRITING_APP : mkvmerge v8.3.0 ('Over the Horizon') 64bit
_STATISTICS_WRITING_DATE_UTC : 2015-09-19 02:14:43
_STATISTICS_TAGS : BPS DURATION NUMBER_OF_FRAMES NUMBER_OF_BYTES
Видео
Идентификатор : 1
Формат : AVC
Формат/Информация : Advanced Video Codec
Профиль формата : High@L4
Параметр CABAC формата : Да
Параметр ReFrames формата : 4 кадра
Идентификатор кодека : V_MPEG4/ISO/AVC
Продолжительность : 1 ч. 19 м.
Битрейт : 5167 Кбит/сек
Ширина : 1916 пикселей
Высота : 1074 пикселя
Соотношение сторон : 16:9
Режим частоты кадров : Постоянный
Частота кадров : 23,976 кадра/сек
Цветовое пространство : YUV
Субдискретизация насыщенности : 4:2:0
Битовая глубина : 8 бит
Тип развёртки : Прогрессивная
Бит/(Пиксели*Кадры) : 0.105
Размер потока : 2,86 Гбайт (88%)
Заголовок : Booty.Call.1997.WEB-DL.1080p_by_vedigo
Default : Да
Forced : Нет
Цветовой диапазон : Limited
Основные цвета : BT.709
Характеристики трансфера : BT.709
Коэффициенты матрицы : BT.709
Аудио #1
Идентификатор : 2
Формат : AC-3
Формат/Информация : Audio Coding 3
Расширение режима : CM (complete main)
Параметр Endianness формата : Big
Идентификатор кодека : A_AC3
Продолжительность : 1 ч. 19 м.
Вид битрейта : Постоянный
Битрейт : 192 Кбит/сек
Каналы : 2 канала
Расположение каналов : Front: L R
Частота : 48,0 КГц
Метод сжатия : С потерями
Размер потока : 109 Мбайт (3%)
Заголовок : MVO @ Видеосервис (VHS)
Язык : Russian
Default : Да
Forced : Нет
Аудио #2
Идентификатор : 3
Формат : AC-3
Формат/Информация : Audio Coding 3
Расширение режима : CM (complete main)
Параметр Endianness формата : Big
Идентификатор кодека : A_AC3
Продолжительность : 1 ч. 19 м.
Вид битрейта : Постоянный
Битрейт : 384 Кбит/сек
Каналы : 6 каналов
Расположение каналов : Front: L C R, Side: L R, LFE
Частота : 48,0 КГц
Метод сжатия : С потерями
Размер потока : 218 Мбайт (7%)
Заголовок : original
Язык : English
Default : Нет
Forced : Нет
Текст
Идентификатор : 4
Формат : UTF-8
Идентификатор кодека : S_TEXT/UTF8
Идентификатор кодека/Информация : UTF-8 Plain Text
Заголовок : subtitle eng
Язык : English
Default : Нет
Forced : Нет
Меню
00:00:00.000 : en:1
00:05:53.000 : en:2
00:09:32.000 : en:3
00:11:42.000 : en:4
00:18:16.000 : en:5
00:27:29.000 : en:6
00:32:27.000 : en:7
00:38:38.000 : en:8
00:42:09.000 : en:9
00:50:51.000 : en:10
00:57:31.000 : en:11
01:01:20.000 : en:12
01:04:14.000 : en:13
01:07:27.000 : en:14
01:09:57.000 : en:15
01:13:41.000 : en:16
Скриншоты
Скачать

Скачать торрент!

Как скачивать? · Что такое торрент? · Рейтинг и ограничения

Сайт не распространяет и не хранит электронные версии произведений, а лишь предоставляет доступ к создаваемому пользователями каталогу ссылок на торрент-файлы, которые содержат только списки хеш-сумм

[Профиль] [ЛС]
Показать сообщения:    
Ответить на тему

Текущее время: Сегодня 02:04

Часовой пояс: GMT + 4



Вы не можете начинать темы
Вы не можете отвечать на сообщения
Вы не можете редактировать свои сообщения
Вы не можете удалять свои сообщения
Вы не можете голосовать в опросах
Вы не можете прикреплять файлы к сообщениям
Вы не можете скачивать файлы