Полтергейст / Poltergeist (Гил Кинан / Gil Kenan) [2015, США, Канада, ужасы, триллер, Blu-ray disc 1080p] [CEE] [2-in-1: Theatrical & Extended Cut] Dub + Ukr + Sub Rus, Eng, Ukr + Original Eng

Ответить на тему
 
Автор Сообщение

user ®

Стаж: 7 лет 7 месяцев

Сообщений: 20008

Пост Пост: #1 от 21-Сен-2015 14:06

[Цитировать]

Полтергейст / Poltergeist
Страна: США, Канада
Жанр: ужасы, триллер
Год выпуска: 2015
Продолжительность: 01:33:41 / 01:40:53
Перевод: Профессиональный (дублированный)
Cубтитры: English, Russian, Arabic, Bulgarian, Croatian, Czech, Estonian, Greek, Hebrew, Hungarian, Indonesian, Korean, Latvian, Lithuanian, Malay, Chinese, Polish, Portuguese, Romanian, Serbian, Slovenian, Thai, Turkish, Ukrainian, Vietnamese, Japanese.
Оригинальная аудиодорожка: английский
Режиссер: Гил Кинан / Gil Kenan
В ролях: Сэм Рокуэлл, Розмари ДеУитт, Саксон Шарбино, Кайл Кэтлетт, Кеннеди Клементс, Джаред Харрис, Джейн Адамс, Сьюзэн Хэйард, Николас Браун, Карен Ивани.
Описание: Когда страшные призраки забирают младшую дочь, семье приходится объединиться, чтобы спасти ее.
Доп. информация: CEE - Central Eastern Europe original release!
Сэмпл
Тип релиза: Blu-ray disc
Контейнер: BDMV
Видео: MPEG-4 AVC Video 30699 kbps 1080p / 23,976 fps / 16:9 / High Profile 4.1
Аудио 1: DTS-HD Master Audio English 5111 kbps 7.1 / 48 kHz / 5111 kbps / 24-bit (DTS Core: 5.1-ES / 48 kHz / 1509 kbps / 24-bit)
Аудио 2: DTS Audio Japanese 768 kbps 5.1 / 48 kHz / 768 kbps / 24-bit
Аудио 3: DTS Audio Russian 768 kbps 5.1 / 48 kHz / 768 kbps / 24-bit
Аудио 4: Dolby Digital Audio Czech 448 kbps 5.1 / 48 kHz / 448 kbps
Аудио 5: Dolby Digital Audio Hungarian 448 kbps 5.1 / 48 kHz / 448 kbps
Аудио 6: Dolby Digital Audio Polish 448 kbps 5.1 / 48 kHz / 448 kbps
Аудио 7: Dolby Digital Audio Thai 448 kbps 5.1 / 48 kHz / 448 kbps
Аудио 8: Dolby Digital Audio Turkish 448 kbps 5.1 / 48 kHz / 448 kbps
Аудио 9: Dolby Digital Audio Ukrainian 448 kbps 5.1 / 48 kHz / 448 kbps
На диске
* Альтернативное окончание.
* Галерея.
* Кионтеатральные ролики
BDInfo
DISC INFO:
Disc Title: Poltergeist
Disc Size: 36 768 268 165 bytes
Protection: AACS
BD-Java: Yes
BDInfo: 0.5.8
PLAYLIST REPORT:
Name: 00801.MPLS
Length: 1:40:53.255 (h:m:s.ms)
Size: 32 644 638 720 bytes
Total Bitrate: 43,14 Mbps
(*) Indicates included stream hidden by this playlist.
VIDEO:
Codec Bitrate Description
----- ------- -----------
MPEG-4 AVC Video 30699 kbps 1080p / 23,976 fps / 16:9 / High Profile 4.1
AUDIO:
Codec Language Bitrate Description
----- -------- ------- -----------
DTS-HD Master Audio English 5111 kbps 7.1 / 48 kHz / 5111 kbps / 24-bit (DTS Core: 5.1-ES / 48 kHz / 1509 kbps / 24-bit)
* DTS Audio Japanese 768 kbps 5.1 / 48 kHz / 768 kbps / 24-bit
DTS Audio Russian 768 kbps 5.1 / 48 kHz / 768 kbps / 24-bit
* Dolby Digital Audio Czech 448 kbps 5.1 / 48 kHz / 448 kbps
* Dolby Digital Audio Hungarian 448 kbps 5.1 / 48 kHz / 448 kbps
* Dolby Digital Audio Polish 448 kbps 5.1 / 48 kHz / 448 kbps
Dolby Digital Audio Thai 448 kbps 5.1 / 48 kHz / 448 kbps
Dolby Digital Audio Turkish 448 kbps 5.1 / 48 kHz / 448 kbps
Dolby Digital Audio Ukrainian 448 kbps 5.1 / 48 kHz / 448 kbps
SUBTITLES:
Codec Language Bitrate Description
----- -------- ------- -----------
Presentation Graphics English 31,059 kbps
Presentation Graphics Arabic 16,436 kbps
Presentation Graphics Bulgarian 25,395 kbps
Presentation Graphics Chinese 21,427 kbps
Presentation Graphics Chinese 22,647 kbps
Presentation Graphics Croatian 28,050 kbps
Presentation Graphics Czech 25,886 kbps
Presentation Graphics Estonian 28,655 kbps
Presentation Graphics Greek 28,722 kbps
Presentation Graphics Hebrew 20,701 kbps
Presentation Graphics Hungarian 29,968 kbps
Presentation Graphics Indonesian 29,877 kbps
* Presentation Graphics Japanese 17,692 kbps
* Presentation Graphics Japanese 0,083 kbps
Presentation Graphics Korean 18,942 kbps
Presentation Graphics Latvian 27,073 kbps
Presentation Graphics Lithuanian 27,323 kbps
Presentation Graphics Malay 33,657 kbps
Presentation Graphics Polish 24,084 kbps
Presentation Graphics Portuguese 30,241 kbps
Presentation Graphics Romanian 26,773 kbps
Presentation Graphics Russian 28,795 kbps
Presentation Graphics Serbian 26,445 kbps
Presentation Graphics Slovenian 23,056 kbps
Presentation Graphics Thai 24,468 kbps
Presentation Graphics Turkish 31,023 kbps
Presentation Graphics Ukrainian 29,783 kbps
Presentation Graphics Vietnamese 30,191 kbps
FILES:
Name Time In Length Size Total Bitrate
---- ------- ------ ---- -------------
02121.M2TS 0:00:00.000 0:06:56.165 2 252 826 624 43 306
02113.M2TS 0:06:56.165 0:02:59.762 971 888 640 43 252
02123.M2TS 0:09:55.928 0:01:40.475 536 573 952 42 723
02114.M2TS 0:11:36.404 0:05:17.442 1 702 299 648 42 900
02125.M2TS 0:16:53.846 0:16:49.508 5 441 476 608 43 122
02115.M2TS 0:33:43.354 0:01:31.925 498 468 864 43 380
02127.M2TS 0:35:15.279 0:00:51.843 287 422 464 44 352
02116.M2TS 0:36:07.123 0:00:37.579 206 542 848 43 970
02129.M2TS 0:36:44.702 0:07:03.798 2 300 854 272 43 433
02117.M2TS 0:43:48.500 0:00:59.726 330 031 104 44 206
02131.M2TS 0:44:48.227 0:02:04.666 677 234 688 43 459
02118.M2TS 0:46:52.893 0:00:23.565 131 383 296 44 602
02133.M2TS 0:47:16.458 0:21:19.027 6 926 419 968 43 323
02119.M2TS 1:08:35.486 0:00:43.084 229 816 320 42 672
02135.M2TS 1:09:18.570 0:22:42.986 7 504 226 304 44 046
02120.M2TS 1:32:01.557 0:00:24.566 136 507 392 44 454
02137.M2TS 1:32:26.123 0:08:27.131 2 510 665 728 39 606
PLAYLIST REPORT:
Name: 00800.MPLS
Length: 1:33:41.157 (h:m:s.ms)
Size: 30 322 102 272 bytes
Total Bitrate: 43,15 Mbps
(*) Indicates included stream hidden by this playlist.
VIDEO:
Codec Bitrate Description
----- ------- -----------
MPEG-4 AVC Video 30677 kbps 1080p / 23,976 fps / 16:9 / High Profile 4.1
AUDIO:
Codec Language Bitrate Description
----- -------- ------- -----------
DTS-HD Master Audio English 5141 kbps 7.1 / 48 kHz / 5141 kbps / 24-bit (DTS Core: 5.1-ES / 48 kHz / 1509 kbps / 24-bit)
* DTS Audio Japanese 768 kbps 5.1 / 48 kHz / 768 kbps / 24-bit
DTS Audio Russian 768 kbps 5.1 / 48 kHz / 768 kbps / 24-bit
Dolby Digital Audio Czech 448 kbps 5.1 / 48 kHz / 448 kbps
Dolby Digital Audio Hungarian 448 kbps 5.1 / 48 kHz / 448 kbps
Dolby Digital Audio Polish 448 kbps 5.1 / 48 kHz / 448 kbps
Dolby Digital Audio Thai 448 kbps 5.1 / 48 kHz / 448 kbps
Dolby Digital Audio Turkish 448 kbps 5.1 / 48 kHz / 448 kbps
Dolby Digital Audio Ukrainian 448 kbps 5.1 / 48 kHz / 448 kbps
SUBTITLES:
Codec Language Bitrate Description
----- -------- ------- -----------
Presentation Graphics English 31,167 kbps
Presentation Graphics Arabic 16,429 kbps
Presentation Graphics Bulgarian 25,304 kbps
Presentation Graphics Chinese 21,387 kbps
Presentation Graphics Chinese 22,690 kbps
Presentation Graphics Croatian 28,456 kbps
Presentation Graphics Czech 25,922 kbps
Presentation Graphics Estonian 28,825 kbps
Presentation Graphics Greek 28,829 kbps
Presentation Graphics Hebrew 20,761 kbps
Presentation Graphics Hungarian 30,201 kbps
Presentation Graphics Indonesian 29,802 kbps
* Presentation Graphics Japanese 17,634 kbps
* Presentation Graphics Japanese 0,089 kbps
Presentation Graphics Korean 18,952 kbps
Presentation Graphics Latvian 26,979 kbps
Presentation Graphics Lithuanian 27,344 kbps
Presentation Graphics Malay 33,872 kbps
Presentation Graphics Polish 24,158 kbps
Presentation Graphics Portuguese 30,348 kbps
Presentation Graphics Romanian 26,874 kbps
Presentation Graphics Russian 28,910 kbps
Presentation Graphics Serbian 26,390 kbps
Presentation Graphics Slovenian 22,960 kbps
Presentation Graphics Thai 24,496 kbps
Presentation Graphics Turkish 31,210 kbps
Presentation Graphics Ukrainian 29,901 kbps
Presentation Graphics Vietnamese 30,187 kbps
FILES:
Name Time In Length Size Total Bitrate
---- ------- ------ ---- -------------
02121.M2TS 0:00:00.000 0:06:56.165 2 252 826 624 43 306
02122.M2TS 0:06:56.165 0:00:34.367 185 640 960 43 213
02123.M2TS 0:07:30.533 0:01:40.475 536 573 952 42 723
02124.M2TS 0:09:11.008 0:02:39.617 865 708 032 43 389
02125.M2TS 0:11:50.626 0:16:49.508 5 441 476 608 43 122
02126.M2TS 0:28:40.135 0:00:28.319 153 440 256 43 345
02127.M2TS 0:29:08.454 0:00:51.843 287 422 464 44 352
02128.M2TS 0:30:00.298 0:00:35.994 199 538 688 44 349
02129.M2TS 0:30:36.292 0:07:03.798 2 300 854 272 43 433
02130.M2TS 0:37:40.091 0:00:22.772 126 277 632 44 361
02131.M2TS 0:38:02.863 0:02:04.666 677 234 688 43 459
02132.M2TS 0:40:07.529 0:00:28.445 158 078 976 44 459
02133.M2TS 0:40:35.975 0:21:19.027 6 926 419 968 43 323
02134.M2TS 1:01:55.002 0:00:19.894 106 702 848 42 907
02135.M2TS 1:02:14.897 0:22:42.986 7 504 226 304 44 046
02136.M2TS 1:24:57.884 0:00:16.141 89 014 272 44 118
02137.M2TS 1:25:14.025 0:08:27.131 2 510 665 728 39 606
Скриншоты меню Скриншоты
Скачать

Скачать торрент!

Как скачивать? · Что такое торрент? · Рейтинг и ограничения

Сайт не распространяет и не хранит электронные версии произведений, а лишь предоставляет доступ к создаваемому пользователями каталогу ссылок на торрент-файлы, которые содержат только списки хеш-сумм

[Профиль] [ЛС]
Показать сообщения:    
Ответить на тему

Текущее время: Сегодня 04:51

Часовой пояс: GMT + 4



Вы не можете начинать темы
Вы не можете отвечать на сообщения
Вы не можете редактировать свои сообщения
Вы не можете удалять свои сообщения
Вы не можете голосовать в опросах
Вы не можете прикреплять файлы к сообщениям
Вы не можете скачивать файлы