Хоббит: Битва пяти воинств / The Hobbit: The Battle of the Five Armies (Питер Джексон / Peter Jackson) [2014, Новая Зеландия, США, фэнтези, приключения, Blu-ray disc 1080p] [CEE] [Theatrical Cut] [2 disc edition] Dub + Sub Rus, Eng + Original Eng

Ответить на тему
 
Автор Сообщение

user ®

Стаж: 7 лет 7 месяцев

Сообщений: 20008

Пост Пост: #1 от 21-Сен-2015 14:06

[Цитировать]

-Хоббит: Битва пяти воинств / The Hobbit: The Battle of the Five Armies-«Последнее путешествие в Средиземье» -Страна: Новая Зеландия, США
Студия: 3Foot7, Metro-Goldwyn-Mayer (MGM), New Line Cinema, WingNut Films
Жанр: фэнтези, приключения
Год выпуска: 2014
Мировая премьера: 1 декабря 2014
Российская премьера: 11 декабря 2014, «Каро-Премьер» 3D
Дата выхода DVD: 26 марта 2015, «CP Дистрибуция»
Дата выхода Blu-Ray: 26 марта 2015, «CP Дистрибуция»
Продолжительность: 2:24:28 + 0:19:59
Перевод: Профессиональный (дублированный) [Дублированный]
Cубтитры: русские, английские, китайские, корейские, хорватские, чешские, эстонские, греческие, индонезийские, латышские, литовские, словенские, тайские, турецкие, украинские
Оригинальная аудиодорожка: английский-Режиссер: Питер Джексон / Peter Jackson-В ролях: Мартин Фриман, Иэн МакКеллен, Ричард Армитедж, Джеймс Несбитт, Кен Стотт, Грэм МакТавиш, Уильям Кирчер, Стивен Хантер, Дин О’Горман, Эйдан Тернер-Описание: Когда отряд из тринадцати гномов нанимал хоббита Бильбо Бэгинса в качестве взломщика и четырнадцатого, «счастливого», участника похода к Одинокой горе, Бильбо полагал, что его приключения закончатся, когда он выполнит свою задачу — найдет сокровище, которое так необходимо предводителю гномов Торину. Путешествие в Эребор, захваченное драконом Смаугом королевство гномов, оказалось еще более опасным, чем предполагали гномы и даже Гэндальф — мудрый волшебник, протянувший Торину и его отряду руку помощи.
В погоню за гномами устремилась армия орков, ведомых пробудившимся в руинах древним злом, а эльфы и люди, с которыми Бильбо и его товарищам пришлось иметь дело во время путешествия и которые пострадали от последствий желания гномов вернуть свой дом, предъявили права на щедрое вознаграждение — часть сокровищ Одинокой горы. Скоро неподалеку от Одинокой горы встретятся пять армий, и лишь кровопролитная битва определит результаты смелого гномьего похода.
-Бонусы: Диск 1: Новая Зеландия: Место Средиземья - Часть 3
Диск 2: Набор пяти армий, Завершение Средиземья: -Сага из шести частей, -Семнадцатилетнее путешествие, Последнее прощание: -Взгляд из-за кулис, -Музыкальный видеоклип, Титры, Ролик:, -Ролик 2, -Хоббит: Пустошь Смауга - Трейлер расширенной версии
[Рус. субтитры]- -Качество: Blu-ray CEE 1080p
Формат: BDMV
Видео кодек: MPEG4
Аудио кодек: AC3 + DTS-HD Master Audio-Диск 1:
Видео: MPEG-4 AVC Video 21965 kbps 1080p / 23,976 fps / 16:9 / High Profile 4.1
Аудио #1: DTS-HD Master Audio English 4721 kbps 7.1 / 48 kHz / 4721 kbps / 24-bit (DTS Core: 5.1 / 48 kHz / 1509 kbps / 24-bit)
Аудио #2: Dolby Digital Audio Czech 448 kbps 5.1 / 48 kHz / 448 kbps / DN -4dB
Аудио #3: Dolby Digital Audio Hindi 448 kbps 5.1 / 48 kHz / 448 kbps / DN -4dB
Аудио #4: Dolby Digital Audio Russian 448 kbps 5.1 / 48 kHz / 448 kbps / DN -4dB
Аудио #5: Dolby Digital Audio Thai 448 kbps 5.1 / 48 kHz / 448 kbps / DN -4dB
Аудио #6: Dolby Digital Audio Turkish 448 kbps 5.1 / 48 kHz / 448 kbps / DN -4dB
Аудио #7: Dolby Digital Audio Ukrainian 448 kbps 5.1 / 48 kHz / 448 kbps / DN -4dB-Диск 2:
Видео: MPEG-4 AVC Video 11454 kbps 1080p / 23,976 fps / 16:9 / High Profile 4.0
Аудио: Dolby Digital Audio English 192 kbps 2.0 / 48 kHz / 192 kbps / DN -4dB / Dolby Surround--

BDInfo FILM
DISC INFO:
Disc Title: HOBBIT_BATTLE_OF_FIVE_ARMIES_FILM
Disc Size: 35 671 246 160 bytes
Protection: AACS
BD-Java: Yes
BDInfo: 0.5.8
PLAYLIST REPORT:
Name: 00100.MPLS
Length: 2:24:28.076 (h:m:s.ms)
Size: 33 942 982 656 bytes
Total Bitrate: 31,33 Mbps
VIDEO:
Codec Bitrate Description
----- ------- -----------
MPEG-4 AVC Video 21965 kbps 1080p / 23,976 fps / 16:9 / High Profile 4.1
AUDIO:
Codec Language Bitrate Description
----- -------- ------- -----------
DTS-HD Master Audio English 4721 kbps 7.1 / 48 kHz / 4721 kbps / 24-bit (DTS Core: 5.1 / 48 kHz / 1509 kbps / 24-bit)
Dolby Digital Audio Czech 448 kbps 5.1 / 48 kHz / 448 kbps / DN -4dB
Dolby Digital Audio Hindi 448 kbps 5.1 / 48 kHz / 448 kbps / DN -4dB
Dolby Digital Audio Russian 448 kbps 5.1 / 48 kHz / 448 kbps / DN -4dB
Dolby Digital Audio Thai 448 kbps 5.1 / 48 kHz / 448 kbps / DN -4dB
Dolby Digital Audio Turkish 448 kbps 5.1 / 48 kHz / 448 kbps / DN -4dB
Dolby Digital Audio Ukrainian 448 kbps 5.1 / 48 kHz / 448 kbps / DN -4dB
SUBTITLES:
Codec Language Bitrate Description
----- -------- ------- -----------
Presentation Graphics English 18,625 kbps
Presentation Graphics Chinese 15,841 kbps
Presentation Graphics Chinese 15,298 kbps
Presentation Graphics Korean 12,431 kbps
Presentation Graphics Croatian 16,221 kbps
Presentation Graphics Czech 14,278 kbps
Presentation Graphics Estonian 14,129 kbps
Presentation Graphics Greek 16,864 kbps
Presentation Graphics Indonesian 18,492 kbps
Presentation Graphics Latvian 13,726 kbps
Presentation Graphics Lithuanian 15,195 kbps
Presentation Graphics Russian 13,702 kbps
Presentation Graphics Slovenian 13,875 kbps
Presentation Graphics Thai 15,327 kbps
Presentation Graphics Turkish 16,420 kbps
Presentation Graphics Czech 0,878 kbps
Presentation Graphics Hindi 0,825 kbps
Presentation Graphics Russian 0,875 kbps
Presentation Graphics Thai 0,979 kbps
Presentation Graphics Turkish 1,016 kbps
Presentation Graphics Ukrainian 0,931 kbps
FILES:
Name Time In Length Size Total Bitrate
---- ------- ------ ---- -------------
00029.M2TS 0:00:00.000 2:24:28.076 33 942 982 656 31 327
CHAPTERS:
Number Time In Length Avg Video Rate Max 1-Sec Rate Max 1-Sec Time Max 5-Sec Rate Max 5-Sec Time Max 10Sec Rate Max 10Sec Time Avg Frame Size Max Frame Size Max Frame Time
------ ------- ------ -------------- -------------- -------------- -------------- -------------- -------------- -------------- -------------- -------------- --------------
1 0:00:00.000 0:05:12.395 20 482 kbps 51 414 kbps 00:03:17.780 33 930 kbps 00:03:17.363 30 784 kbps 00:03:12.317 106 768 bytes 584 177 bytes 00:00:02.252
2 0:05:12.395 0:07:13.891 22 742 kbps 42 329 kbps 00:07:32.160 32 714 kbps 00:08:27.924 32 412 kbps 00:08:23.294 118 569 bytes 666 882 bytes 00:12:25.411
3 0:12:26.287 0:00:32.240 18 032 kbps 25 282 kbps 00:12:57.401 20 383 kbps 00:12:53.522 18 790 kbps 00:12:48.517 94 012 bytes 496 146 bytes 00:12:27.079
4 0:12:58.527 0:05:38.129 24 567 kbps 39 092 kbps 00:13:01.363 34 643 kbps 00:15:49.198 32 466 kbps 00:13:00.946 128 082 bytes 613 122 bytes 00:18:16.178
5 0:18:36.657 0:04:44.742 19 884 kbps 40 622 kbps 00:23:02.422 28 954 kbps 00:18:46.917 27 216 kbps 00:18:43.247 103 666 bytes 725 371 bytes 00:18:42.412
6 0:23:21.399 0:01:13.990 25 435 kbps 41 565 kbps 00:23:26.488 32 889 kbps 00:23:24.569 29 678 kbps 00:23:22.150 132 606 bytes 648 806 bytes 00:23:27.322
7 0:24:35.390 0:01:08.234 22 105 kbps 32 003 kbps 00:24:47.736 28 087 kbps 00:24:44.149 26 853 kbps 00:24:39.144 115 244 bytes 690 129 bytes 00:25:00.665
8 0:25:43.625 0:01:28.630 21 133 kbps 29 828 kbps 00:27:05.790 26 561 kbps 00:26:58.450 25 980 kbps 00:26:56.781 110 178 bytes 645 296 bytes 00:27:06.791
9 0:27:12.255 0:07:17.854 23 130 kbps 40 609 kbps 00:32:47.465 33 720 kbps 00:32:16.142 32 275 kbps 00:31:03.236 120 588 bytes 615 852 bytes 00:34:15.094
10 0:34:30.109 0:03:57.612 18 951 kbps 30 861 kbps 00:35:55.403 24 611 kbps 00:36:41.866 23 286 kbps 00:36:38.654 98 803 bytes 601 870 bytes 00:34:32.862
11 0:38:27.722 0:01:19.245 23 208 kbps 35 174 kbps 00:38:41.402 29 360 kbps 00:38:49.869 28 066 kbps 00:38:49.785 120 995 bytes 691 708 bytes 00:38:59.795
12 0:39:46.967 0:01:10.612 20 772 kbps 30 619 kbps 00:39:47.593 24 322 kbps 00:40:52.575 23 397 kbps 00:40:47.570 108 297 bytes 551 991 bytes 00:40:46.152
13 0:40:57.580 0:02:56.926 23 733 kbps 41 759 kbps 00:42:13.280 31 081 kbps 00:43:21.515 28 430 kbps 00:43:24.310 123 736 bytes 740 180 bytes 00:41:44.627
14 0:43:54.506 0:05:11.519 22 638 kbps 36 122 kbps 00:46:04.261 29 836 kbps 00:46:14.062 29 353 kbps 00:46:09.016 118 023 bytes 757 137 bytes 00:44:18.781
15 0:49:06.026 0:03:30.293 20 962 kbps 46 648 kbps 00:50:11.675 27 222 kbps 00:50:07.713 25 702 kbps 00:50:20.475 109 285 bytes 489 776 bytes 00:50:21.852
16 0:52:36.319 0:01:16.868 18 829 kbps 25 462 kbps 00:53:16.902 21 624 kbps 00:52:40.031 20 766 kbps 00:52:36.862 98 165 bytes 520 438 bytes 00:52:46.746
17 0:53:53.188 0:02:16.469 22 640 kbps 41 160 kbps 00:53:58.109 32 740 kbps 00:53:55.607 32 242 kbps 00:53:56.441 118 035 bytes 649 065 bytes 00:55:46.343
18 0:56:09.657 0:01:55.073 22 568 kbps 37 587 kbps 00:56:12.744 32 157 kbps 00:56:12.077 30 694 kbps 00:56:11.242 117 661 bytes 771 286 bytes 00:56:32.972
19 0:58:04.731 0:03:53.233 19 679 kbps 31 230 kbps 00:59:10.380 23 262 kbps 01:01:52.959 22 192 kbps 00:59:09.963 102 595 bytes 615 288 bytes 01:00:26.956
20 1:01:57.964 0:05:15.732 22 294 kbps 40 515 kbps 01:03:15.875 32 605 kbps 01:05:59.372 31 308 kbps 01:05:56.202 116 233 bytes 759 477 bytes 01:04:17.186
21 1:07:13.696 0:02:46.749 21 811 kbps 39 154 kbps 01:09:49.226 32 241 kbps 01:09:44.847 28 901 kbps 01:09:40.342 113 713 bytes 775 910 bytes 01:07:32.923
22 1:10:00.446 0:02:29.440 24 094 kbps 38 466 kbps 01:10:45.324 33 067 kbps 01:12:04.111 29 925 kbps 01:10:38.984 125 618 bytes 681 590 bytes 01:10:44.949
23 1:12:29.887 0:04:21.636 26 330 kbps 39 996 kbps 01:16:47.394 33 912 kbps 01:15:20.516 32 460 kbps 01:15:16.512 137 274 bytes 650 692 bytes 01:12:37.478
24 1:16:51.523 0:03:14.402 26 392 kbps 41 130 kbps 01:18:38.505 34 709 kbps 01:18:30.455 32 964 kbps 01:18:38.463 137 598 bytes 621 276 bytes 01:19:32.893
25 1:20:05.926 0:02:09.420 15 834 kbps 23 995 kbps 01:20:47.259 17 907 kbps 01:20:07.511 16 972 kbps 01:20:07.427 82 553 bytes 496 057 bytes 01:20:08.386
26 1:22:15.347 0:02:09.879 20 559 kbps 34 011 kbps 01:23:07.065 29 947 kbps 01:22:45.210 28 639 kbps 01:22:41.164 107 184 bytes 518 329 bytes 01:24:16.634
27 1:24:25.226 0:02:10.672 19 181 kbps 36 251 kbps 01:24:31.691 32 273 kbps 01:24:28.521 32 068 kbps 01:24:28.688 100 003 bytes 664 935 bytes 01:24:53.880
28 1:26:35.899 0:02:42.996 24 618 kbps 42 027 kbps 01:27:05.720 32 597 kbps 01:27:58.189 31 047 kbps 01:27:53.351 128 346 bytes 631 031 bytes 01:27:02.091
29 1:29:18.895 0:01:58.493 26 818 kbps 40 797 kbps 01:30:05.650 35 026 kbps 01:30:01.687 32 152 kbps 01:30:02.188 139 817 bytes 539 691 bytes 01:30:42.895
30 1:31:17.388 0:00:46.463 24 790 kbps 41 164 kbps 01:31:22.018 32 259 kbps 01:31:21.309 28 863 kbps 01:31:21.309 129 243 bytes 571 230 bytes 01:31:24.353
31 1:32:03.851 0:00:57.724 20 134 kbps 36 262 kbps 01:32:04.060 27 046 kbps 01:32:51.566 23 960 kbps 01:32:50.022 104 968 bytes 428 377 bytes 01:32:42.223
32 1:33:01.575 0:02:56.593 23 129 kbps 43 484 kbps 01:33:44.785 32 848 kbps 01:33:44.660 30 479 kbps 01:33:40.531 120 586 bytes 712 305 bytes 01:33:25.933
33 1:35:58.169 0:00:54.262 22 063 kbps 38 652 kbps 01:36:11.056 30 788 kbps 01:36:10.556 28 395 kbps 01:36:06.719 115 025 bytes 583 925 bytes 01:36:44.340
34 1:36:52.431 0:03:23.953 21 662 kbps 37 350 kbps 01:39:50.985 33 135 kbps 01:40:01.996 32 381 kbps 01:39:56.156 112 938 bytes 543 946 bytes 01:38:11.552
35 1:40:16.385 0:07:59.145 25 373 kbps 41 623 kbps 01:46:51.488 33 739 kbps 01:44:12.579 33 059 kbps 01:43:20.777 132 283 bytes 610 056 bytes 01:45:41.918
36 1:48:15.530 0:06:06.908 21 083 kbps 41 261 kbps 01:51:10.789 32 377 kbps 01:49:00.617 29 934 kbps 01:49:00.325 109 917 bytes 545 658 bytes 01:50:40.216
37 1:54:22.438 0:03:19.199 19 273 kbps 30 704 kbps 01:55:01.811 26 076 kbps 01:55:01.811 22 549 kbps 01:55:18.703 100 479 bytes 742 021 bytes 01:57:39.427
38 1:57:41.637 0:03:06.269 19 714 kbps 31 902 kbps 01:59:54.687 27 140 kbps 01:58:01.866 25 598 kbps 01:57:56.861 102 779 bytes 538 950 bytes 01:59:55.605
39 2:00:47.907 0:06:00.526 20 090 kbps 33 496 kbps 02:00:54.538 25 104 kbps 02:00:54.497 24 488 kbps 02:00:51.118 104 742 bytes 751 985 bytes 02:01:53.180
40 2:06:48.434 0:04:42.865 21 000 kbps 36 072 kbps 02:07:29.016 30 347 kbps 02:07:26.639 26 409 kbps 02:07:24.928 109 485 bytes 757 250 bytes 02:07:21.258
41 2:11:31.300 0:12:56.775 20 191 kbps 31 774 kbps 02:24:21.361 25 542 kbps 02:21:04.122 23 710 kbps 02:17:59.479 105 279 bytes 783 559 bytes 02:16:23.008
STREAM DIAGNOSTICS:
File PID Type Codec Language Seconds Bitrate Bytes Packets
---- --- ---- ----- -------- -------------- -------------- ------------- -----
00029.M2TS 4113 (0x1011) 0x1B AVC 8667,993 21 966 23 799 621 667 129 467 995
00029.M2TS 4352 (0x1100) 0x86 DTS-HD MA eng (English) 8667,993 4 721 5 115 156 776 29 150 848
00029.M2TS 4353 (0x1101) 0x81 AC3 ces (Czech) 8667,993 448 485 467 136 2 709 080
00029.M2TS 4354 (0x1102) 0x81 AC3 hin (Hindi) 8667,993 448 485 467 136 2 709 080
00029.M2TS 4355 (0x1103) 0x81 AC3 rus (Russian) 8667,993 448 485 467 136 2 709 080
00029.M2TS 4356 (0x1104) 0x81 AC3 tha (Thai) 8667,993 448 485 467 136 2 709 080
00029.M2TS 4357 (0x1105) 0x81 AC3 tur (Turkish) 8667,993 448 485 467 136 2 709 080
00029.M2TS 4358 (0x1106) 0x81 AC3 ukr (Ukrainian) 8667,993 448 485 467 136 2 709 080
00029.M2TS 4608 (0x1200) 0x90 PGS eng (English) 8667,993 19 20 180 607 119 629
00029.M2TS 4609 (0x1201) 0x90 PGS zho (Chinese) 8667,993 16 17 164 001 102 603
00029.M2TS 4610 (0x1202) 0x90 PGS zho (Chinese) 8667,993 15 16 575 495 99 105
00029.M2TS 4611 (0x1203) 0x90 PGS kor (Korean) 8667,993 12 13 469 637 82 253
00029.M2TS 4612 (0x1204) 0x90 PGS hrv (Croatian) 8667,993 16 17 576 045 104 610
00029.M2TS 4613 (0x1205) 0x90 PGS ces (Czech) 8667,993 14 15 470 710 93 179
00029.M2TS 4614 (0x1206) 0x90 PGS est (Estonian) 8667,993 14 15 308 975 92 374
00029.M2TS 4615 (0x1207) 0x90 PGS ell (Greek) 8667,993 17 18 272 582 108 386
00029.M2TS 4616 (0x1208) 0x90 PGS ind (Indonesian) 8667,993 18 20 036 657 117 967
00029.M2TS 4617 (0x1209) 0x90 PGS lav (Latvian) 8667,993 14 14 872 312 90 002
00029.M2TS 4618 (0x120A) 0x90 PGS lit (Lithuanian) 8667,993 15 16 464 213 98 617
00029.M2TS 4619 (0x120B) 0x90 PGS rus (Russian) 8667,993 14 14 846 084 89 855
00029.M2TS 4620 (0x120C) 0x90 PGS slv (Slovenian) 8667,993 14 15 033 924 90 755
00029.M2TS 4621 (0x120D) 0x90 PGS tha (Thai) 8667,993 15 16 606 466 99 375
00029.M2TS 4622 (0x120E) 0x90 PGS tur (Turkish) 8667,993 16 17 791 483 105 872
00029.M2TS 4623 (0x120F) 0x90 PGS ces (Czech) 8667,993 1 951 779 5 737
00029.M2TS 4624 (0x1210) 0x90 PGS hin (Hindi) 8667,993 1 894 425 5 423
00029.M2TS 4625 (0x1211) 0x90 PGS rus (Russian) 8667,993 1 948 133 5 700
00029.M2TS 4626 (0x1212) 0x90 PGS tha (Thai) 8667,993 1 1 060 539 6 325
00029.M2TS 4627 (0x1213) 0x90 PGS tur (Turkish) 8667,993 1 1 101 305 6 552
00029.M2TS 4628 (0x1214) 0x90 PGS ukr (Ukrainian) 8667,993 1 1 008 805 6 041
BDInfo BONUS
DISC INFO:
Disc Title: HOBBIT_BATTLE_OF_FIVE_ARMIES
Disc Size: 5 673 453 036 bytes
Protection: AACS
BD-Java: Yes
BDInfo: 0.5.8
PLAYLIST REPORT:
Name: 00202.MPLS
Length: 0:19:59.615 (h:m:s.ms)
Size: 1 977 446 400 bytes
Total Bitrate: 13,19 Mbps
(*) Indicates included stream hidden by this playlist.
VIDEO:
Codec Bitrate Description
----- ------- -----------
MPEG-4 AVC Video 11454 kbps 1080p / 23,976 fps / 16:9 / High Profile 4.0
AUDIO:
Codec Language Bitrate Description
----- -------- ------- -----------
Dolby Digital Audio English 192 kbps 2.0 / 48 kHz / 192 kbps / DN -4dB / Dolby Surround
SUBTITLES:
Codec Language Bitrate Description
----- -------- ------- -----------
* Presentation Graphics Japanese 51,393 kbps
Presentation Graphics English 51,651 kbps
Presentation Graphics French 45,618 kbps
Presentation Graphics German 50,479 kbps
Presentation Graphics Italian 50,664 kbps
Presentation Graphics Spanish 48,330 kbps
Presentation Graphics Dutch 45,643 kbps
Presentation Graphics Chinese 45,366 kbps
Presentation Graphics Chinese 45,196 kbps
Presentation Graphics Korean 39,577 kbps
Presentation Graphics Czech 44,947 kbps
Presentation Graphics Greek 45,676 kbps
Presentation Graphics Hungarian 45,036 kbps
Presentation Graphics Polish 41,977 kbps
Presentation Graphics Portuguese 49,400 kbps
Presentation Graphics Russian 47,878 kbps
Presentation Graphics Thai 43,173 kbps
Presentation Graphics Turkish 43,623 kbps
FILES:
Name Time In Length Size Total Bitrate
---- ------- ------ ---- -------------
00024.M2TS 0:00:00.000 0:09:41.080 994 338 816 13 690
00029.M2TS 0:09:41.080 0:08:46.859 902 694 912 13 707
00026.M2TS 0:18:27.940 0:01:31.674 80 412 672 7 017
CHAPTERS:
Number Time In Length Avg Video Rate Max 1-Sec Rate Max 1-Sec Time Max 5-Sec Rate Max 5-Sec Time Max 10Sec Rate Max 10Sec Time Avg Frame Size Max Frame Size Max Frame Time
------ ------- ------ -------------- -------------- -------------- -------------- -------------- -------------- -------------- -------------- -------------- --------------
1 0:00:00.000 0:09:41.080 11 927 kbps 32 032 kbps 00:00:02.377 17 482 kbps 00:05:43.217 15 865 kbps 00:05:38.087 62 179 bytes 709 184 bytes 00:00:02.544
2 0:09:41.080 0:08:46.859 11 808 kbps 28 299 kbps 00:09:48.129 17 432 kbps 00:17:43.479 15 839 kbps 00:17:39.808 61 566 bytes 689 191 bytes 00:17:41.185
3 0:18:27.940 0:01:31.674 6 420 kbps 32 518 kbps 00:19:40.262 16 317 kbps 00:19:31.587 14 700 kbps 00:19:25.122 33 500 bytes 398 861 bytes 00:19:40.554
STREAM DIAGNOSTICS:
File PID Type Codec Language Seconds Bitrate Bytes Packets
---- --- ---- ----- -------- -------------- -------------- ------------- -----
00024.M2TS 4113 (0x1011) 0x1B AVC 580,997 11 928 866 281 910 4 716 261
00024.M2TS 4352 (0x1100) 0x81 AC3 eng (English) 580,997 192 13 946 112 90 795
00024.M2TS 4608 (0x1200) 0x90 PGS jpn (Japanese) 580,997 47 3 444 250 20 004
00024.M2TS 4609 (0x1201) 0x90 PGS eng (English) 580,997 52 3 791 038 21 675
00024.M2TS 4610 (0x1202) 0x90 PGS fra (French) 580,997 48 3 512 214 20 194
00024.M2TS 4611 (0x1203) 0x90 PGS deu (German) 580,997 49 3 542 202 20 338
00024.M2TS 4612 (0x1204) 0x90 PGS ita (Italian) 580,997 50 3 652 280 20 925
00024.M2TS 4613 (0x1205) 0x90 PGS spa (Spanish) 580,997 51 3 675 069 21 063
00024.M2TS 4614 (0x1206) 0x90 PGS nld (Dutch) 580,997 48 3 488 671 19 993
00024.M2TS 4615 (0x1207) 0x90 PGS zho (Chinese) 580,997 43 3 138 534 18 137
00024.M2TS 4616 (0x1208) 0x90 PGS zho (Chinese) 580,997 42 3 064 805 17 745
00024.M2TS 4617 (0x1209) 0x90 PGS kor (Korean) 580,997 40 2 897 028 16 837
00024.M2TS 4618 (0x120A) 0x90 PGS ces (Czech) 580,997 45 3 262 532 18 809
00024.M2TS 4619 (0x120B) 0x90 PGS ell (Greek) 580,997 48 3 472 555 19 945
00024.M2TS 4620 (0x120C) 0x90 PGS hun (Hungarian) 580,997 47 3 405 765 19 587
00024.M2TS 4621 (0x120D) 0x90 PGS pol (Polish) 580,997 44 3 225 811 18 607
00024.M2TS 4622 (0x120E) 0x90 PGS por (Portuguese) 580,997 49 3 570 680 20 468
00024.M2TS 4623 (0x120F) 0x90 PGS rus (Russian) 580,997 47 3 407 895 19 621
00024.M2TS 4624 (0x1210) 0x90 PGS tha (Thai) 580,997 46 3 313 742 19 093
00024.M2TS 4625 (0x1211) 0x90 PGS tur (Turkish) 580,997 46 3 326 734 19 168
00029.M2TS 4113 (0x1011) 0x1B AVC 526,776 11 810 777 635 962 4 233 734
00029.M2TS 4352 (0x1100) 0x81 AC3 eng (English) 526,776 192 12 645 120 82 325
00029.M2TS 4608 (0x1200) 0x90 PGS jpn (Japanese) 526,776 65 4 259 980 24 532
00029.M2TS 4609 (0x1201) 0x90 PGS eng (English) 526,776 60 3 951 864 22 517
00029.M2TS 4610 (0x1202) 0x90 PGS fra (French) 526,776 51 3 326 105 19 105
00029.M2TS 4611 (0x1203) 0x90 PGS deu (German) 526,776 61 4 025 075 22 904
00029.M2TS 4612 (0x1204) 0x90 PGS ita (Italian) 526,776 60 3 942 613 22 463
00029.M2TS 4613 (0x1205) 0x90 PGS spa (Spanish) 526,776 54 3 569 840 20 435
00029.M2TS 4614 (0x1206) 0x90 PGS nld (Dutch) 526,776 51 3 353 445 19 215
00029.M2TS 4615 (0x1207) 0x90 PGS zho (Chinese) 526,776 56 3 661 947 21 029
00029.M2TS 4616 (0x1208) 0x90 PGS zho (Chinese) 526,776 56 3 710 208 21 291
00029.M2TS 4617 (0x1209) 0x90 PGS kor (Korean) 526,776 46 3 035 353 17 613
00029.M2TS 4618 (0x120A) 0x90 PGS ces (Czech) 526,776 53 3 475 206 19 928
00029.M2TS 4619 (0x120B) 0x90 PGS ell (Greek) 526,776 51 3 374 382 19 462
00029.M2TS 4620 (0x120C) 0x90 PGS hun (Hungarian) 526,776 51 3 345 269 19 229
00029.M2TS 4621 (0x120D) 0x90 PGS pol (Polish) 526,776 47 3 066 445 17 703
00029.M2TS 4622 (0x120E) 0x90 PGS por (Portuguese) 526,776 58 3 834 725 21 878
00029.M2TS 4623 (0x120F) 0x90 PGS rus (Russian) 526,776 57 3 769 248 21 608
00029.M2TS 4624 (0x1210) 0x90 PGS tha (Thai) 526,776 48 3 157 881 18 286
00029.M2TS 4625 (0x1211) 0x90 PGS tur (Turkish) 526,776 49 3 212 369 18 493
00026.M2TS 4113 (0x1011) 0x1B AVC 91,592 6 426 73 565 909 401 054
00026.M2TS 4352 (0x1100) 0x81 AC3 eng (English) 91,592 192 2 201 088 14 330
00026.M2TS 4608 (0x1200) 0x90 PGS jpn (Japanese) 91,592 0 2 208 19
00026.M2TS 4609 (0x1201) 0x90 PGS eng (English) 91,592 0 2 208 19
00026.M2TS 4610 (0x1202) 0x90 PGS fra (French) 91,592 0 2 208 19
00026.M2TS 4611 (0x1203) 0x90 PGS deu (German) 91,592 0 2 208 19
00026.M2TS 4612 (0x1204) 0x90 PGS ita (Italian) 91,592 0 2 208 19
00026.M2TS 4613 (0x1205) 0x90 PGS spa (Spanish) 91,592 0 2 208 19
00026.M2TS 4614 (0x1206) 0x90 PGS nld (Dutch) 91,592 0 2 208 19
00026.M2TS 4615 (0x1207) 0x90 PGS zho (Chinese) 91,592 0 2 208 19
00026.M2TS 4616 (0x1208) 0x90 PGS zho (Chinese) 91,592 0 2 208 19
00026.M2TS 4617 (0x1209) 0x90 PGS kor (Korean) 91,592 0 2 208 19
00026.M2TS 4618 (0x120A) 0x90 PGS ces (Czech) 91,592 0 2 208 19
00026.M2TS 4619 (0x120B) 0x90 PGS ell (Greek) 91,592 0 2 208 19
00026.M2TS 4620 (0x120C) 0x90 PGS hun (Hungarian) 91,592 0 2 208 19
00026.M2TS 4621 (0x120D) 0x90 PGS pol (Polish) 91,592 0 2 208 19
00026.M2TS 4622 (0x120E) 0x90 PGS por (Portuguese) 91,592 0 2 208 19
00026.M2TS 4623 (0x120F) 0x90 PGS rus (Russian) 91,592 0 2 208 19
00026.M2TS 4624 (0x1210) 0x90 PGS tha (Thai) 91,592 0 2 208 19
00026.M2TS 4625 (0x1211) 0x90 PGS tur (Turkish) 91,592 0 2 208 19
Скриншоты фильма
-
-Раздача от группы:
Скачать

Скачать торрент!

Как скачивать? · Что такое торрент? · Рейтинг и ограничения

Сайт не распространяет и не хранит электронные версии произведений, а лишь предоставляет доступ к создаваемому пользователями каталогу ссылок на торрент-файлы, которые содержат только списки хеш-сумм

[Профиль] [ЛС]
Показать сообщения:    
Ответить на тему

Текущее время: Сегодня 18:10

Часовой пояс: GMT + 4



Вы не можете начинать темы
Вы не можете отвечать на сообщения
Вы не можете редактировать свои сообщения
Вы не можете удалять свои сообщения
Вы не можете голосовать в опросах
Вы не можете прикреплять файлы к сообщениям
Вы не можете скачивать файлы