Охотники за золотом / Похитители золота / Gold Snatchers / Hu quan (Ланг Кин / Lung Chien) [1973, Гонконг, Боевые искусства, DVDRip] AVO (Сергей Кузнецов)

Ответить на тему
 
Автор Сообщение

user ®

Стаж: 13 лет

Сообщений: 15071

Пост Пост: #1 от 21-Сен-2015 11:00

[Цитировать]

Охотники за золотом / Похитители золота / Gold Snatchers / Hu quan
Страна: Гонконг
Жанр: Боевые искусства
Год выпуска: 1973
Продолжительность: 01:15:46
Перевод: Авторский (одноголосый закадровый) Сергей Кузнецов
Cубтитры: нет
Оригинальная аудиодорожка: нет
Режиссер: Ланг Кин / Lung Chien
В ролях: Синг Чан, Ясуаки Курата, Хуи Лу Чен, Сан Лин Чен, Йинг Фанг Чен, Томми Ли, Минг Шао Хо, Вэй Хунг Хо, Хунг Куан, Пинг Лу
Описание: История рассказывает о двух приемных братьях в смертельной борьбе за обладание Золотой Фортуной матери...
Доп. информация: DVD с Кинозала
Сэмпл: http://multi-up.com/1066698
Качество видео: DVDRip
Формат видео: AVI
Видео: 704x272 (2.59:1), 25 fps, XviD MPEG-4 ~1177 kbps avg, 0.25 bit/pixel
Аудио: 48 kHz, AC3 Dolby Digital, 2/0 (L,R) ch, ~192 kbps
MediaInfo
General
Complete name : D:\Desktop\Gold Snatchers.avi
Format : AVI
Format/Info : Audio Video Interleave
File size : 745 MiB
Duration : 1h 15mn
Overall bit rate : 1 376 Kbps
Movie name : Похитители золота.Title1.DVDRip
Director : spring is coming
Writing application : VirtualDubMod 1.5.10.3 (build 2550/release)
Writing library : VirtualDubMod build 2550/release
Original source form/Name : Похитители золота
Video
ID : 0
Format : MPEG-4 Visual
Format profile : Advanced Simple@L5
Format settings, BVOP : Yes
Format settings, QPel : No
Format settings, GMC : No warppoints
Format settings, Matrix : Default (H.263)
Codec ID : XVID
Codec ID/Hint : XviD
Duration : 1h 15mn
Bit rate : 1 177 Kbps
Width : 704 pixels
Height : 272 pixels
Display aspect ratio : 2.588
Frame rate : 25.000 fps
Color space : YUV
Chroma subsampling : 4:2:0
Bit depth : 8 bits
Scan type : Progressive
Compression mode : Lossy
Bits/(Pixel*Frame) : 0.246
Stream size : 638 MiB (86%)
Writing library : XviD 64
Audio
ID : 1
Format : AC-3
Format/Info : Audio Coding 3
Mode extension : CM (complete main)
Format settings, Endianness : Big
Codec ID : 2000
Duration : 1h 15mn
Bit rate mode : Constant
Bit rate : 192 Kbps
Channel count : 2 channels
Channel positions : Front: L R
Sampling rate : 48.0 KHz
Bit depth : 16 bits
Compression mode : Lossy
Stream size : 104 MiB (14%)
Alignment : Aligned on interleaves
Interleave, duration : 160 ms (4.00 video frames)
Interleave, preload duration : 640 ms
Скриншот c названием фильма Скриншоты
Скачать

Скачать торрент! Охотники за золотом / Похитители золота / Gold Snatchers / Hu quan (Ланг Кин / Lung Chien) [1973, Гонконг, Боевые искусства, DVDRip] AVO (Сергей Кузнецов)

Как скачивать? · Что такое торрент? · Рейтинг и ограничения

Сайт не распространяет и не хранит электронные версии произведений, а лишь предоставляет доступ к создаваемому пользователями каталогу ссылок на торрент-файлы, которые содержат только списки хеш-сумм

[Профиль] [ЛС]
Показать сообщения:    
Ответить на тему

Текущее время: Сегодня 20:55

Часовой пояс: GMT + 4



Вы не можете начинать темы
Вы не можете отвечать на сообщения
Вы не можете редактировать свои сообщения
Вы не можете удалять свои сообщения
Вы не можете голосовать в опросах
Вы не можете прикреплять файлы к сообщениям
Вы не можете скачивать файлы