Алоха / Aloha (Кэмерон Кроу) [2015 г., Драма, Мелодрама, Комедия, HDTVRip]

Ответить на тему
 
Автор Сообщение

namemaxxx ®

Пол:

Стаж: 1 год 6 месяцев

Сообщений: 30

Откуда: дер.Разбегаево -> Москва

Пост Пост: #1 от 21-Сен-2015 03:06

[Цитировать]

Алоха / Aloha (2015) HDRip- Производство: США, Columbia Pictures, LStar Capital, RatPac Entertainment, Regency Enterprises
Жанр: Драма, Мелодрама, Комедия
Режиссер: Кэмерон Кроу
Продюсер: Кэмерон Кроу, Скотт Рудин, Эли Буш
Актеры: Брэдли Купер, Эмма Стоун, Рэйчел МакАдамс, Билл Мюррэй, Джон Красински, Дэнни МакБрайд, Алек Болдуин, Билл Кэмп, Джейден Либерер, Даниэль Роуз Расселл
Описание:
37-летний дискредитированный американский консультант по оружию Брайн Джилкрест не нравится практически всем окружающим его людям. Его единственный друг — техник по имени Джереми — супер умный и хорошо осведомленный компьютерщик. В ответ на агрессию со стороны Китая Джилкреста отправляют на бездействующую военную базу на Гавайях, чтобы оттуда он контролировал запуск современного спутника-шпиона. Это задание сведет его с девушкой по имени Трейси…
Рейтинг MPAA: PG-13
Возраст: 12+
Дата мировой премьеры: 27 мая 2015
Продолжительность: 01:44:38
Качество видео: HDRip
Перевод: Дублированный (iTunes)
Вид субтитров: Отсутствуют
Видео: XviD, 720x384, 1597 kb/s
Аудио: 48 kHz, AC3 Dolby Digital, 3/2 (L,C,R,l,r) + LFE ch, ~384 kbps
Семпл: Скачать

MediaInfo

Общее
Полное имя                               : D:\Релизы\Алоха.2015.HDRip.avi
Формат                                   : AVI
Формат/Информация                        : Audio Video Interleave
Размер файла                             : 1,45 Гбайт
Продолжительность                        : 1 ч. 44 м.
Общий поток                              : 1990 Кбит/сек
Программа кодирования                    : VirtualDubMod 1.5.10.3 | (build 2550/release)
Библиотека кодирования                   : VirtualDubMod build 2550/release
Видео
Идентификатор                            : 0
Формат                                   : MPEG-4 Visual
Профиль формата                          : Advanced Simple@L5
Параметр BVOP формата                    : 2
Параметр QPel формата                    : Нет
Параметр GMC формата                     : Без точки перехода
Параметр матрицы формата                 : Default (MPEG)
Идентификатор кодека                     : XVID
Идентификатор кодека/Подсказка           : XviD
Продолжительность                        : 1 ч. 44 м.
Битрейт                                  : 1597 Кбит/сек
Ширина                                   : 720 пикселей
Высота                                   : 384 пикселя
Соотношение сторон                       : 1,85:1
Частота кадров                           : 23,976 кадра/сек
Цветовое пространство                    : YUV
Субдискретизация насыщенности            : 4:2:0
Битовая глубина                          : 8 бит
Тип развёртки                            : Прогрессивная
Метод сжатия                             : С потерями
Бит/(Пиксели*Кадры)                      : 0.241
Размер потока                            : 1,17 Гбайт (80%)
Библиотека кодирования                   : XviD 1.2.1 (UTC 2008-12-04)
Аудио
Идентификатор                            : 1
Формат                                   : AC-3
Формат/Информация                        : Audio Coding 3
Расширение режима                        : CM (complete main)
Параметр Endianness формата              : Big
Идентификатор кодека                     : 2000
Продолжительность                        : 1 ч. 44 м.
Вид битрейта                             : Постоянный
Битрейт                                  : 384 Кбит/сек
Каналы                                   : 6 каналов
Расположение каналов                     : Front: L C R, Side: L R, LFE
Частота                                  : 48,0 КГц
Метод сжатия                             : С потерями
Размер потока                            : 287 Мбайт (19%)
Выравнивание                             : Разделение по промежуткам
Продолжительность промежутка             : 42  мс. (1,00 видеокадр)
Время предзагрузки промежутка            : 500  мс.
Скриншоты:
Время раздачи: По возможности
Скачать

Скачать торрент!

Как скачивать? · Что такое торрент? · Рейтинг и ограничения

Сайт не распространяет и не хранит электронные версии произведений, а лишь предоставляет доступ к создаваемому пользователями каталогу ссылок на торрент-файлы, которые содержат только списки хеш-сумм


_________________
[Профиль] [ЛС]
Показать сообщения:    
Ответить на тему

Текущее время: Сегодня 05:52

Часовой пояс: GMT + 4



Вы не можете начинать темы
Вы не можете отвечать на сообщения
Вы не можете редактировать свои сообщения
Вы не можете удалять свои сообщения
Вы не можете голосовать в опросах
Вы не можете прикреплять файлы к сообщениям
Вы не можете скачивать файлы