Земля будущего / Tomorrowland (Брэд Бёрд) [2015 г., Фантастика, Боевик, Детектив, WEB-DL H.264/1080p-LQ]

Ответить на тему
 
Автор Сообщение

namemaxxx ®

Пол:

Стаж: 1 год 6 месяцев

Сообщений: 30

Откуда: дер.Разбегаево -> Москва

Пост Пост: #1 от 21-Сен-2015 02:53

[Цитировать]

Земля будущего / Tomorrowland (2015) WEB-DL [H.264/1080p-LQ]- Производство: США, Walt Disney Pictures, A113
Жанр: Фантастика, Боевик, Детектив
Режиссер: Брэд Бёрд
Продюсер: Брэд Бёрд, Джеффри Чернов, Дэймон Линделоф
Актеры: Джордж Клуни, Бритт Робертсон, Хью Лори, Рэффи Кэссиди, Тим МакГроу, Кэтрин Хан, Кигэн-Майкл Ки, Кристофер Бауэр, Томас Робинсон, Пирс Гэнон
Описание:
Когда в руки к молодой девушке, жаждущей новых приключений, попадает загадочный предмет, открывающий доступ в параллельную реальность, она вынуждена обратиться за помощью к циничному гению-изобретателю Фрэнку. Кейси должна убедить бывшего вундеркинда раскрыть ей тайну загадочного места, находящегося вне привычной реальности, известного как Земля будущего, и убедить Фрэнка вернуться туда, откуда его однажды изгнали
Рейтинг MPAA: PG
Возраст: 12+
Дата мировой премьеры: 9 мая 2015
Дата премьеры в РФ: 21 мая 2015, «WDSSPR»
Дата выхода DVD/Blu-ray релиза: 13 октября 2015, «Уолт Дисней Компани СНГ»
Продолжительность: 02:10:19
Качество видео: WEB-DL
Перевод: Дублированный (iTunes)
Вид субтитров: Отсутствуют
Видео: AVC/H.264, 1916x868, 4388 kb/s
Аудио »1: 48 kHz, AC3 Dolby Digital, 3/2 (L,C,R,l,r) + LFE ch, ~384 kbps (Русский)
Аудио »2: 48 kHz, AC3 Dolby Digital, 2/0 (L,R) ch, ~192 kbps (Английский/Оригинал)
Сэмпл: Скачать

MediaInfo

Общее
Уникальный идентификатор : 219874949199043879325039104532299427803 (0xA56A5FF75E8AF5348A667D4DF924AFDB)
Полное имя : D:\Релизы\Земля.будущего.2015.WEB-DL.[1080p].mkv
Формат : Matroska
Версия формата : Version 2
Размер файла : 4,61 Гбайт
Продолжительность : 2 ч. 10 м.
Общий поток : 5065 Кбит/сек
Название фильма : Земля.будущего.2015.WEB-DL.[1080p]
Дата кодирования : UTC 2015-09-20 20:55:31
Программа кодирования : mkvmerge v8.3.0 ('Over the Horizon') 64bit
Библиотека кодирования : libebml v1.3.1 + libmatroska v1.4.2
Видео
Идентификатор : 1
Формат : AVC
Формат/Информация : Advanced Video Codec
Профиль формата : High@L4
Параметр CABAC формата : Да
Параметр ReFrames формата : 5 кадров
Идентификатор кодека : V_MPEG4/ISO/AVC
Продолжительность : 2 ч. 10 м.
Битрейт : 4388 Кбит/сек
Ширина : 1916 пикселей
Высота : 868 пикселей
Соотношение сторон : 2,2:1
Режим частоты кадров : Постоянный
Частота кадров : 23,976 кадра/сек
Цветовое пространство : YUV
Субдискретизация насыщенности : 4:2:0
Битовая глубина : 8 бит
Тип развёртки : Прогрессивная
Бит/(Пиксели*Кадры) : 0.110
Размер потока : 3,99 Гбайт (87%)
Заголовок : Земля.будущего.2015.WEB-DL.[1080p]
Язык : English
Default : Да
Forced : Нет
Цветовой диапазон : Limited
Основные цвета : BT.709
Характеристики трансфера : BT.709
Коэффициенты матрицы : BT.709
Аудио #1
Идентификатор : 2
Формат : AC-3
Формат/Информация : Audio Coding 3
Расширение режима : CM (complete main)
Параметр Endianness формата : Big
Идентификатор кодека : A_AC3
Продолжительность : 2 ч. 10 м.
Вид битрейта : Постоянный
Битрейт : 384 Кбит/сек
Каналы : 6 каналов
Расположение каналов : Front: L C R, Side: L R, LFE
Частота : 48,0 КГц
Метод сжатия : С потерями
Размер потока : 358 Мбайт (8%)
Заголовок : iTunes
Язык : Russian
Default : Да
Forced : Нет
Аудио #2
Идентификатор : 3
Формат : AC-3
Формат/Информация : Audio Coding 3
Расширение режима : CM (complete main)
Параметр Endianness формата : Big
Идентификатор кодека : A_AC3
Продолжительность : 2 ч. 10 м.
Вид битрейта : Постоянный
Битрейт : 192 Кбит/сек
Каналы : 2 канала
Расположение каналов : Front: L R
Частота : 48,0 КГц
Метод сжатия : С потерями
Размер потока : 179 Мбайт (4%)
Заголовок : Original
Язык : English
Default : Нет
Forced : Нет
Меню
00:00:00.000 : en:1
00:16:12.000 : en:2
00:21:56.000 : en:3
00:28:52.000 : en:4
00:37:37.000 : en:5
00:46:35.000 : en:6
00:55:00.000 : en:7
01:11:47.000 : en:8
01:19:18.000 : en:9
01:26:44.000 : en:10
01:30:57.000 : en:11
01:38:05.000 : en:12
01:49:50.000 : en:13
01:56:11.000 : en:14
02:01:26.000 : en:15
Скриншоты:
Время раздачи: По возможности
Скачать

Скачать торрент!

Как скачивать? · Что такое торрент? · Рейтинг и ограничения

Сайт не распространяет и не хранит электронные версии произведений, а лишь предоставляет доступ к создаваемому пользователями каталогу ссылок на торрент-файлы, которые содержат только списки хеш-сумм


_________________
[Профиль] [ЛС]
Показать сообщения:    
Ответить на тему

Текущее время: Сегодня 20:05

Часовой пояс: GMT + 4



Вы не можете начинать темы
Вы не можете отвечать на сообщения
Вы не можете редактировать свои сообщения
Вы не можете удалять свои сообщения
Вы не можете голосовать в опросах
Вы не можете прикреплять файлы к сообщениям
Вы не можете скачивать файлы