Врата тьмы / Pay the Ghost (Ули Эдель) [2015 г., Ужасы, Триллер, 720p]

Ответить на тему
 
Автор Сообщение

namemaxxx ®

Пол:

Стаж: 1 год 6 месяцев

Сообщений: 30

Откуда: дер.Разбегаево -> Москва

Пост Пост: #1 от 20-Сен-2015 14:49

[Цитировать]

Врата тьмы / Pay the Ghost (2015) WEB-DLRip - Производство: США, Midnight Kitchen Productions, Voltage Films
Жанр: Ужасы, Триллер
Режиссер: Ули Эдель
Продюсер: Николя Картье, Крэйг Дж. Флорес, Йен Леви
Актеры: Николас Кейдж, Сара Уэйн Каллис, Алекс Маллари-мл., Вероника Феррес, Лирик Бент, Эрин Бойес, Джек Фултон, София Уэллс, Элизабет Джинна ле Ру, Марк Ирвингсен, Максвелл МакКейб-Локос, Хуан Карлос Велис, Лорен Битти
Описание:
Во время ночного праздничного парада в Нью-Йорке у профессора Майка Кола бесследно пропадает его маленький сын. Полиции не удается найти ребенка, однако после собственного расследования отец узнает, что некое мощное древнее проклятие забирает детей каждый год. Чтобы вернуть себе своего сына, у него есть только один шанс — в ночь на Хэллоуин отправиться по ту сторону врат тьмы….
Sample скачать
Релиз от: FAGOT100
Продолжительность: 01:34:05
Качество видео: WEB-DLRip
Перевод: Двухголосый закадровый, любительский (GreenРай Studio)
Cубтитры: Отсутствуют
Видео: MPEG4, XviD, 720x304 (2.35:1), 23.976 fps, 967 Kbps (0.184 bit/pixel)
Аудио: MP3, 48.0 KHz, 2 ch, 128 Kbps, CBR

Mediainfo:

Формат : AVI
Формат/Информация : Audio Video Interleave
Размер файла : 743 Мбайт
Продолжительность : 1 ч. 34 м.
Общий поток : 1104 Кбит/сек
Программа кодирования : VirtualDubMod 1.5.10.3 | www.virtualdub-fr.org || (build 2550/release)
Библиотека кодирования : VirtualDubMod build 2550/release
Видео
Идентификатор : 0
Формат : MPEG-4 Visual
Профиль формата : Advanced Simple@L5
Параметр BVOP формата : 1
Параметр QPel формата : Нет
Параметр GMC формата : Без точки перехода
Параметр матрицы формата : Выборочная
Идентификатор кодека : XVID
Идентификатор кодека/Подсказка : XviD
Продолжительность : 1 ч. 34 м.
Битрейт : 967 Кбит/сек
Ширина : 720 пикселей
Высота : 304 пикселя
Соотношение сторон : 2,35:1
Частота кадров : 23,976 кадра/сек
Цветовое пространство : YUV
Субдискретизация насыщенности : 4:2:0
Битовая глубина : 8 бит
Тип развёртки : Прогрессивная
Метод сжатия : С потерями
Бит/(Пиксели*Кадры) : 0.184
Размер потока : 651 Мбайт (88%)
Библиотека кодирования : XviD 73
Аудио
Идентификатор : 1
Формат : MPEG Audio
Версия формата : Version 1
Профиль формата : Layer 3
Идентификатор кодека : 55
Идентификатор кодека/Подсказка : MP3
Продолжительность : 1 ч. 34 м.
Вид битрейта : Постоянный
Битрейт : 128 Кбит/сек
Каналы : 2 канала
Частота : 48,0 КГц
Метод сжатия : С потерями
Размер потока : 86,1 Мбайт (12%)
Выравнивание : Соединение по промежуткам
Продолжительность промежутка : 42 мс. (1,00 видеокадр)
Время предзагрузки промежутка : 504 мс.
Библиотека кодирования : LAME3.99r
Настройки программы : -m s -V 4 -q 2 -lowpass 17 -b 128
Скриншоты:
Время раздачи: По возможности
Скачать

Скачать торрент!

Как скачивать? · Что такое торрент? · Рейтинг и ограничения

Сайт не распространяет и не хранит электронные версии произведений, а лишь предоставляет доступ к создаваемому пользователями каталогу ссылок на торрент-файлы, которые содержат только списки хеш-сумм


_________________
[Профиль] [ЛС]
Показать сообщения:    
Ответить на тему

Текущее время: Сегодня 07:04

Часовой пояс: GMT + 4



Вы не можете начинать темы
Вы не можете отвечать на сообщения
Вы не можете редактировать свои сообщения
Вы не можете удалять свои сообщения
Вы не можете голосовать в опросах
Вы не можете прикреплять файлы к сообщениям
Вы не можете скачивать файлы