Врата тьмы / Pay the Ghost (Ули Эдель) [2015 г., Ужасы, Триллер, WEB-DL [H.264/1080p-LQ]

Ответить на тему
 
Автор Сообщение

namemaxxx ®

Пол:

Стаж: 1 год 6 месяцев

Сообщений: 30

Откуда: дер.Разбегаево -> Москва

Пост Пост: #1 от 20-Сен-2015 07:55

[Цитировать]

Врата тьмы / Pay the Ghost (2015) WEB-DL [H.264/1080p-LQ] - Производство: США / Midnight Kitchen Productions, Voltage Films
Жанр: Ужасы, Триллер
Режиссер: Ули Эдель
Продюсер: Николя Картье, Крэйг Дж. Флорес, Йен Леви
Актеры: Николас Кейдж, Сара Уэйн Каллис, Алекс Маллари-мл., Вероника Феррес, Лирик Бент, Эрин Бойес, Джек Фултон, София Уэллс, Элизабет Джинна ле Ру, Марк Ирвингсен, Максвелл МакКейб-Локос, Хуан Карлос Велис, Лорен Битти
Описание:
Во время ночного праздничного парада в Нью-Йорке у профессора Майка Кола бесследно пропадает его маленький сын. Полиции не удается найти ребенка, однако после собственного расследования отец узнает, что некое мощное древнее проклятие забирает детей каждый год. Чтобы вернуть себе своего сына, у него есть только один шанс — в ночь на Хэллоуин отправиться по ту сторону врат тьмы….
Дата мировой премьеры: 16 сентября 2015
Дата премьеры в России: 24 сентября 2015, «Вольга»
Продолжительность: 01:34:05
Качество видео: WEB-DL 1080p-LQ
Перевод: Двуголосый закадровый, любительский (GreenРай Studio)
Cубтитры: Вшитые отключаемые (Английские, Голландские)
Видео: AVC/H.264, 1912x792, 4245 kb/s
Аудио#1: 48 kHz, AC3, 6 ch, 384 Кбит/с - (Русский)
Аудио#2: 48 kHz, AC3, 6 ch, 384 Кбит/с - (Английский)
Семпл: Скачать

Mediainfo:

Общее
Уникальный идентификатор                 : 222375691473471402812457926260827309643 (0xA74C001466092B18BFF7B89D355F464B)
Полное имя                               : Pay.the.Ghost.2015.L2.WEB-DL.1080p.mkv
Формат                                   : Matroska
Версия формата                           : Version 4 / Version 2
Размер файла                             : 3,36 Гбайт
Продолжительность                        : 1 ч. 34 м.
Общий поток                              : 5115 Кбит/сек
Название фильма                          : Pay.The.Ghost.2015.1080p.WEB-DL.DD5.1.H.264-QoQ
Дата кодирования                         : UTC 2015-09-19 21:54:04
Программа кодирования                    : mkvmerge v7.2.0 ('On Every Street') 64bit built on Sep 13 2014 15:52:10
Библиотека кодирования                   : libebml v1.3.0 + libmatroska v1.4.1
DURATION                                 : 01:34:05.600000000
NUMBER_OF_FRAMES                         : 176425
NUMBER_OF_BYTES                          : 270988800
_STATISTICS_WRITING_APP                  : mkvmerge v7.2.0 ('On Every Street') 64bit built on Sep 13 2014 15:52:10
_STATISTICS_WRITING_DATE_UTC             : 2015-09-19 21:54:04
_STATISTICS_TAGS                         : BPS DURATION NUMBER_OF_FRAMES NUMBER_OF_BYTES
Видео
Идентификатор                            : 1
Формат                                   : AVC
Формат/Информация                        : Advanced Video Codec
Профиль формата                          : High@L4
Параметр CABAC формата                   : Да
Параметр ReFrames формата                : 5 кадров
Идентификатор кодека                     : V_MPEG4/ISO/AVC
Продолжительность                        : 1 ч. 34 м.
Битрейт                                  : 4245 Кбит/сек
Ширина                                   : 1912 пикселей
Высота                                   : 792 пикселя
Соотношение сторон                       : 2,40:1
Режим частоты кадров                     : Постоянный
Частота кадров                           : 23,976 кадра/сек
Цветовое пространство                    : YUV
Субдискретизация насыщенности            : 4:2:0
Битовая глубина                          : 8 бит
Тип развёртки                            : Прогрессивная
Бит/(Пиксели*Кадры)                      : 0.117
Размер потока                            : 2,79 Гбайт (83%)
Заголовок                                : Pay.The.Ghost.2015.1080p.WEB-DL.DD5.1.H.264-QoQ
Язык                                     : English
Default                                  : Да
Forced                                   : Нет
colour_range                             : Limited
Основные цвета                           : BT.709
Характеристики трансфера                 : BT.709
Коэффициенты матрицы                     : BT.709
Аудио #1
Идентификатор                            : 2
Формат                                   : AC-3
Формат/Информация                        : Audio Coding 3
Расширение режима                        : CM (complete main)
Параметр Endianness формата              : Big
Идентификатор кодека                     : A_AC3
Продолжительность                        : 1 ч. 34 м.
Вид битрейта                             : Постоянный
Битрейт                                  : 384 Кбит/сек
Каналы                                   : 6 каналов
Расположение каналов                     : Front: L C R, Side: L R, LFE
Частота                                  : 48,0 КГц
Метод сжатия                             : С потерями
Размер потока                            : 258 Мбайт (8%)
Язык                                     : Russian
Default                                  : Да
Forced                                   : Нет
Аудио #2
Идентификатор                            : 3
Формат                                   : AC-3
Формат/Информация                        : Audio Coding 3
Расширение режима                        : CM (complete main)
Параметр Endianness формата              : Big
Идентификатор кодека                     : A_AC3
Продолжительность                        : 1 ч. 34 м.
Вид битрейта                             : Постоянный
Битрейт                                  : 384 Кбит/сек
Каналы                                   : 6 каналов
Расположение каналов                     : Front: L C R, Side: L R, LFE
Частота                                  : 48,0 КГц
Метод сжатия                             : С потерями
Размер потока                            : 258 Мбайт (8%)
Заголовок                                : DD5.1
Язык                                     : English
Default                                  : Нет
Forced                                   : Нет
Текст #1
Идентификатор                            : 4
Формат                                   : UTF-8
Идентификатор кодека                     : S_TEXT/UTF8
Идентификатор кодека/Информация          : UTF-8 Plain Text
Заголовок                                : Engels
Язык                                     : English
Default                                  : Нет
Forced                                   : Нет
Текст #2
Идентификатор                            : 5
Формат                                   : UTF-8
Идентификатор кодека                     : S_TEXT/UTF8
Идентификатор кодека/Информация          : UTF-8 Plain Text
Заголовок                                : Dutch
Язык                                     : Dutch
Default                                  : Нет
Forced                                   : Нет
Меню
00:00:00.000                             : en:Old New York
00:07:43.000                             : en:Spare A Thought For Lovecraft
00:15:04.000                             : en:Halloween Carnival
00:25:58.000                             : en:One Year Later
00:31:41.000                             : en:Visions Of Charlie
00:38:21.000                             : en:Kristen And Mike
00:48:41.000                             : en:Something Mysterious Out There
00:58:51.000                             : en:The Celtic Goddess
01:06:42.000                             : en:Final Day Of Sowin
01:12:40.000                             : en:Hannah
01:16:42.000                             : en:Crossing To The Other Side
01:28:34.000                             : en:Credits
Скриншоты:
Время раздачи: По возможности
Скачать

Скачать торрент!

Как скачивать? · Что такое торрент? · Рейтинг и ограничения

Сайт не распространяет и не хранит электронные версии произведений, а лишь предоставляет доступ к создаваемому пользователями каталогу ссылок на торрент-файлы, которые содержат только списки хеш-сумм


_________________
[Профиль] [ЛС]
Показать сообщения:    
Ответить на тему

Текущее время: Сегодня 15:36

Часовой пояс: GMT + 4



Вы не можете начинать темы
Вы не можете отвечать на сообщения
Вы не можете редактировать свои сообщения
Вы не можете удалять свои сообщения
Вы не можете голосовать в опросах
Вы не можете прикреплять файлы к сообщениям
Вы не можете скачивать файлы