Здорово и вечно (Наталья Чумакова, Анна Цирлина) [2014, Документальный, DVDRip]

Ответить на тему
 
Автор Сообщение

user ®

Стаж: 7 лет 7 месяцев

Сообщений: 20008

Пост Пост: #1 от 20-Сен-2015 01:00

[Цитировать]

Здорово и вечно
Жанр: Документальный
Год выпуска: 2014
Продолжительность: 01:20:13
Режиссёр: Наталья Чумакова, Анна Цирлина
Принимали участие:
Сергей Летов
Александр «Иваныч» Рожков
Валерий «Валерыч» Рожков
Сергей Жариков
Константин «Кузьма» Рябинов
Ирина Рябинова
Олег «Манагер» Судаков
Вадим «Лукич» Кузьмин
Денис Каспирович
Сергей Тендитный
Алексей «Плюха» Плюснин
Фёдор Фомин
Игорь «Игорёз» Рагулин
Аркадий Климкин
Игорь Староватов
Сергей Фирсов
Сергей Гурьев
Игорь «Джефф» Жевтун
Описание: Фильм рассказывает о творческом пути Егора Летова с начала 80-ых до начала 90-ых годов. О том с чего началась любовь к музыке. О жизни в Москве и возвращении в Омск. Как появилась идея первой группы «Посев». Как из этого всего выросла «Гражданская оборона». Отношения с властями и КГБ. Сумасшедший дом. О фестивале в Новосибирске в 1987 году. О знакомстве Егора с Янкой Дягилевой и совместном творчестве. О фестивале в Москве в 1988 году. О создании концептуального музыкального проекта «Коммунизм». Рассказывается о «последнем концерте» «Гражданской обороны» в Таллине в 1990 году и роспуске группы. Фильм заканчивается кадрами с несостоявшегося концерта в Москве в декабре 1993 года.
Доп. информация: В 2009 году Наталья Чумакова, жена Егора Летова, смонтировала небольшой 40-минутный фильм из домашнего видео — «Егор Летов: Проект фильма». «Проект фильма» с успехом был показан на фестивале современного кино «2morrow» в Москве в этом же году. Наталья рассчитывала, что найдутся кинематографисты, которые возьмутся за полноценный полнометражный фильм о Летове и «Гражданской обороне», но поскольку этого не произошло стала снимать сама. Съёмки растянулись на пять лет. Первоначально фильм назывался «Гражданская оборона: начало». К ноябрю 2013 года было отснято и отобрано около 300 часов материала. 20 ноября началась краудфандинг-акция на сайте Kroogi для сбора средств нужных для монтажа фильма. Нужная сумма была собрана за месяц. Выход фильма был запланирован на осень 2014 года — это и 50-летие Егора Летова и 30-летие «Гражданской обороны».
Фильм был переименован в «Здорово и вечно» — это одноимённый студийный альбом 1989 года и песня.
Сэмпл: https://www.sendspace.com/file/k3s3f0
Качество видео: DVDRip
Формат видео: AVI
Видео: Xvid, 1280x720, 25.00fps, 6 202 Kbps
Аудио: Русский, MPEG Audio Layer 3, 44100Hz, stereo, 64kbps

MediaInfo
General
Complete name : Здорово и вечно (2014).avi
Format : AVI
Format/Info : Audio Video Interleave
Format profile : OpenDML
File size : 3.52 GiB
Duration : 1h 20mn
Overall bit rate : 6 277 Kbps
Writing application : Lavf52.39.1
Video
ID : 0
Format : xvid
Codec ID : xvid
Duration : 1h 20mn
Bit rate : 6 202 Kbps
Width : 1 280 pixels
Height : 720 pixels
Display aspect ratio : 16:9
Frame rate : 25.000 fps
Bits/(Pixel*Frame) : 0.269
Stream size : 3.48 GiB (99%)
Audio
ID : 1
Format : MPEG Audio
Format version : Version 1
Format profile : Layer 3
Mode : Joint stereo
Mode extension : MS Stereo
Codec ID : 55
Codec ID/Hint : MP3
Duration : 1h 20mn
Bit rate mode : Constant
Bit rate : 64.0 Kbps
Channel(s) : 2 channels
Sampling rate : 44.1 KHz
Stream size : 36.7 MiB (1%)
Alignment : Aligned on interleaves
Interleave, duration : 26 ms (0.65 video frame)
Interleave, preload duration : 26 ms
Writing library : LAMEUUULAME3.96.1
Скриншот c названием фильма
Скриншоты
Скачать

Скачать торрент!

Как скачивать? · Что такое торрент? · Рейтинг и ограничения

Сайт не распространяет и не хранит электронные версии произведений, а лишь предоставляет доступ к создаваемому пользователями каталогу ссылок на торрент-файлы, которые содержат только списки хеш-сумм

[Профиль] [ЛС]
Показать сообщения:    
Ответить на тему

Текущее время: Сегодня 07:59

Часовой пояс: GMT + 4



Вы не можете начинать темы
Вы не можете отвечать на сообщения
Вы не можете редактировать свои сообщения
Вы не можете удалять свои сообщения
Вы не можете голосовать в опросах
Вы не можете прикреплять файлы к сообщениям
Вы не можете скачивать файлы