Легенды Дикого Запада / Повелитель Бурь / Невероятная История / Небылицы / Tall Tale (Джеримайя С. Чечик / Jeremiah S. Chechik) [1995, США, фэнтези, приключения, семейный, вестерн, WEB-DL 720p] 2x MVO + 2x AVO + Sub Eng + Original Eng

Ответить на тему
 
Автор Сообщение

user ®

Стаж: 7 лет 7 месяцев

Сообщений: 20008

Пост Пост: #1 от 19-Сен-2015 00:15

[Цитировать]

Легенды Дикого Запада / Повелитель Бурь / Невероятная История / Небылицы / Tall Tale
Страна: США
Студия: Caravan Pictures, Walt Disney Pictures
Жанр: фэнтези, приключения, семейный, вестерн
Год выпуска: 1995
Продолжительность: 01:36:36
Перевод: Профессиональный (многоголосый закадровый) 1 канал
Перевод 2: Профессиональный (многоголосый закадровый)
Перевод 3: Авторский (одноголосый закадровый) Антон Алексеев
Перевод 4: Авторский (одноголосый закадровый) Павел Санаев
Cубтитры: английские
Оригинальная аудиодорожка: английский
Режиссер: Джеримайя С. Чечик / Jeremiah S. Chechik
В ролях: Патрик Суэйзи, Оливер Плэтт, Роджер Аарон Браун, Ник Стал, Скотт Гленн, Стивен Лэнг, Джерид Харрис, Кэтрин О’Хара, Мойра Харрис ...
Описание: Долгими вечерами Дэнни с увлечением слушает рассказы о легендарных героях Дикого Запада. А днем он сталкивается с насилием и несправедливостью: преступные дельцы пытаются отнять у отца ферму, их единственную надежду на выживание. И, когда шансов на спасение уже не остается, на помощь мальчику приходят легендарные герои, о которых Дэнни мог только мечтать. Бандиты, вставшие на пути у непобедимых воинов чести, не верят в сказки. Но вместо волшебных палочек их ждут настоящие револьверы...
II Сэмпл II IMDB II
Доп. информация:
За многоголоску спасибо edich2
За перевод Павла Санаева спасибо IVH
За переводы 1 канала и Антона Алексеева спасибо JUSTKANT
Цитата:
За запись перевода с Первого Канала большое спасибо Werewolf77
За оцифровку Алексеева с видеокассеты большое спасибо DjVu-Master
Тип релиза: WEB-DL 720p
Контейнер: MKV
Видео: AVC / 1280x544 / 16:9 / 23.976fps / Bit rate / 4046Kbps
Аудио 1: AC3 / 48.0 KHz / 2ch. / 192kbps / rus / mvo / 1 канал
Аудио 2: AC3 / 48.0 KHz / 2ch. / 192kbps / rus / mvo
Аудио 3: AC3 / 48.0 KHz / 2ch. / 192kbps / rus / avo / Антон Алексеев
Аудио 4: AC3 / 48.0 KHz / 2ch. / 192kbps / rus / avo / Павел Санаев
Аудио 5: AAC-LC / 48.0 KHz / 2ch. / 128kbps / eng
Формат субтитров: softsub (SRT)
MediaInfo
Общее
Уникальный идентификатор : 219726410360277902758735270426990901088 (0xA54DC46FA4F49A17A771D0AAC57C7760)
Полное имя : H:\!_Torrent\Tall.Tale.1995.WEB-DL.720p_by_vedigo.mkv
Формат : Matroska
Версия формата : Version 4 / Version 2
Размер файла : 3,39 Гбайт
Продолжительность : 1 ч. 36 м.
Общий поток : 5025 Кбит/сек
Название фильма : Tall.Tale.1995.WEB-DL.720p_by_vedigo
Дата кодирования : UTC 2015-09-17 10:10:33
Программа кодирования : mkvmerge v8.3.0 ('Over the Horizon') 64bit
Библиотека кодирования : libebml v1.3.1 + libmatroska v1.4.2
DURATION : 01:30:58.202000000
NUMBER_OF_FRAMES : 1240
NUMBER_OF_BYTES : 32681
_STATISTICS_WRITING_APP : mkvmerge v8.3.0 ('Over the Horizon') 64bit
_STATISTICS_WRITING_DATE_UTC : 2015-09-17 10:10:33
_STATISTICS_TAGS : BPS DURATION NUMBER_OF_FRAMES NUMBER_OF_BYTES
Видео
Идентификатор : 1
Формат : AVC
Формат/Информация : Advanced Video Codec
Профиль формата : Main@L3.1
Параметр CABAC формата : Нет
Параметр ReFrames формата : 2 кадра
Параметр GOP формата : N=1
Идентификатор кодека : V_MPEG4/ISO/AVC
Продолжительность : 1 ч. 36 м.
Ширина : 1280 пикселей
Высота : 544 пикселя
Соотношение сторон : 2,35:1
Режим частоты кадров : Постоянный
Частота кадров : 23,976 кадра/сек
Цветовое пространство : YUV
Субдискретизация насыщенности : 4:2:0
Битовая глубина : 8 бит
Тип развёртки : Прогрессивная
Заголовок : Tall.Tale.1995.WEB-DL.720p_by_vedigo
Язык : English
Default : Да
Forced : Нет
Цветовой диапазон : Limited
Основные цвета : BT.709
Характеристики трансфера : BT.709
Коэффициенты матрицы : BT.709
Аудио #1
Идентификатор : 2
Формат : AC-3
Формат/Информация : Audio Coding 3
Расширение режима : CM (complete main)
Параметр Endianness формата : Big
Идентификатор кодека : A_AC3
Продолжительность : 1 ч. 36 м.
Вид битрейта : Постоянный
Битрейт : 192 Кбит/сек
Каналы : 2 канала
Расположение каналов : Front: L R
Частота : 48,0 КГц
Метод сжатия : С потерями
Размер потока : 133 Мбайт (4%)
Заголовок : MVO @ 1 канал
Язык : Russian
Default : Да
Forced : Нет
Аудио #2
Идентификатор : 3
Формат : AC-3
Формат/Информация : Audio Coding 3
Расширение режима : CM (complete main)
Параметр Endianness формата : Big
Идентификатор кодека : A_AC3
Продолжительность : 1 ч. 36 м.
Вид битрейта : Постоянный
Битрейт : 192 Кбит/сек
Каналы : 2 канала
Расположение каналов : Front: L R
Частота : 48,0 КГц
Метод сжатия : С потерями
Размер потока : 133 Мбайт (4%)
Заголовок : MVO
Язык : Russian
Default : Нет
Forced : Нет
Аудио #3
Идентификатор : 4
Формат : AC-3
Формат/Информация : Audio Coding 3
Расширение режима : CM (complete main)
Параметр Endianness формата : Big
Идентификатор кодека : A_AC3
Продолжительность : 1 ч. 36 м.
Вид битрейта : Постоянный
Битрейт : 192 Кбит/сек
Каналы : 2 канала
Расположение каналов : Front: L R
Частота : 48,0 КГц
Метод сжатия : С потерями
Размер потока : 133 Мбайт (4%)
Заголовок : AVO @ Антон Алексеев
Язык : Russian
Default : Нет
Forced : Нет
Аудио #4
Идентификатор : 5
Формат : AC-3
Формат/Информация : Audio Coding 3
Расширение режима : CM (complete main)
Параметр Endianness формата : Big
Идентификатор кодека : A_AC3
Продолжительность : 1 ч. 36 м.
Вид битрейта : Постоянный
Битрейт : 192 Кбит/сек
Каналы : 2 канала
Расположение каналов : Front: L R
Частота : 48,0 КГц
Метод сжатия : С потерями
Размер потока : 133 Мбайт (4%)
Заголовок : AVO @ Павел Санаев
Язык : Russian
Default : Нет
Forced : Нет
Аудио #5
Идентификатор : 6
Формат : AAC
Формат/Информация : Advanced Audio Codec
Профиль формата : LC
Идентификатор кодека : A_AAC
Продолжительность : 1 ч. 36 м.
Каналы : 2 канала
Расположение каналов : Front: L R
Частота : 48,0 КГц
Метод сжатия : С потерями
Заголовок : original
Язык : English
Default : Нет
Forced : Нет
Текст
Идентификатор : 7
Формат : UTF-8
Идентификатор кодека : S_TEXT/UTF8
Идентификатор кодека/Информация : UTF-8 Plain Text
Заголовок : subtitle eng
Язык : English
Default : Нет
Forced : Нет
Меню
00:00:00.000 : en:глава 1
00:09:39.000 : en:глава 2
00:15:18.000 : en:глава 3
00:24:40.000 : en:глава 4
00:28:01.000 : en:глава 5
00:37:04.000 : en:глава 6
00:40:51.000 : en:глава 7
00:46:27.000 : en:глава 8
01:01:54.000 : en:глава 9
01:13:43.000 : en:глава 10
01:25:23.000 : en:глава 11
01:32:21.000 : en:глава 12
Скриншоты
Скрины:

Скачать

Скачать торрент!

Как скачивать? · Что такое торрент? · Рейтинг и ограничения

Сайт не распространяет и не хранит электронные версии произведений, а лишь предоставляет доступ к создаваемому пользователями каталогу ссылок на торрент-файлы, которые содержат только списки хеш-сумм

[Профиль] [ЛС]
Показать сообщения:    
Ответить на тему

Текущее время: Сегодня 07:57

Часовой пояс: GMT + 4



Вы не можете начинать темы
Вы не можете отвечать на сообщения
Вы не можете редактировать свои сообщения
Вы не можете удалять свои сообщения
Вы не можете голосовать в опросах
Вы не можете прикреплять файлы к сообщениям
Вы не можете скачивать файлы