Приключения Микки Мэтсона и сокровища Копперхедов / The Adventures of Mickey Matson and the Copperhead Treasure (Харольд Кронк / Harold Cronk) [2012, США, семейный, приключения, WEB-DL 720p] Sub Rus, Eng + Original Eng

Ответить на тему
 
Автор Сообщение

user ®

Стаж: 7 лет 7 месяцев

Сообщений: 20008

Пост Пост: #1 от 19-Сен-2015 00:15

[Цитировать]

Приключения Микки Мэтсона и сокровища Копперхедов / The Adventures of Mickey Matson and the Copperhead Treasure
Страна: США
Студия: 10 West Studios, EMC Productions, Rebel Forge
Жанр: семейный, приключения
Год выпуска: 2012
Продолжительность: 01:33:39
Перевод: Субтитры Juris
Cубтитры: русские, английские
Оригинальная аудиодорожка: английский
Режиссер: Харольд Кронк / Harold Cronk
В ролях: Дерек Брэндон, Франческа Дероса, Пэтрика Дарбо, Кристофер Ллойд, Рик Пламмер, Эрни Хадсон, Ли Аренберг, Фрэнк Дранк, Кевин Йон, Грег Роджерс
Описание: Микки Мэтсон после похорон своего деда узнает, что является единственным его наследником. Но в наследство он получает странный предмет - обычный камень. Все попытки разобраться в сущности этого наследства приводят главного героя и его знакомых к серии удивительных приключений, которые так или иначе связанны с историей страны.
Доп. информация: За русские субтитры спасибо Juris и кинопорталу blizzardkid.
Кинопоиск
Sample
Тип релиза: WEB-DL 720p
Контейнер: MKV
Видео: MPEG4 AVC Video, H264, 16:9, 1280x536, 23.976 fps, 4044 kbps
Аудио: English (AC3, 6 ch, 384 kbps, 16 bits, 48.0 KHz) - оригинал
Формат субтитров: softsub (SRT)

MediaInfo
General
Unique ID : 229387838125941420670940463742778416380 (0xAC927D9A176EFAEDAFB70F0D7BA91CFC)
Complete name : E:\The Adventures Of Mickey Matson And The Copperhead Treasure 2012 WEB-DL 720p.mkv
Format : Matroska
Format version : Version 4 / Version 2
File size : 2.96 GiB
Duration : 1h 33mn
Overall bit rate : 4 518 Kbps
Encoded date : UTC 2015-09-17 12:53:30
Writing application : mkvmerge v6.1.0 ('Old Devil') built on Mar 2 2013 14:32:37
Writing library : libebml v1.3.0 + libmatroska v1.4.0
Video
ID : 1
Format : AVC
Format/Info : Advanced Video Codec
Format profile : Main@L3.1
Format settings, CABAC : No
Format settings, ReFrames : 2 frames
Format settings, GOP : N=1
Codec ID : V_MPEG4/ISO/AVC
Duration : 1h 33mn
Bit rate : 4 044 Kbps
Width : 1 280 pixels
Height : 536 pixels
Display aspect ratio : 2.40:1
Frame rate mode : Constant
Frame rate : 23.976 fps
Color space : YUV
Chroma subsampling : 4:2:0
Bit depth : 8 bits
Scan type : Progressive
Bits/(Pixel*Frame) : 0.246
Stream size : 2.65 GiB (90%)
Language : English
Default : Yes
Forced : No
Color primaries : BT.709
Transfer characteristics : BT.709
Matrix coefficients : BT.709
Audio
ID : 2
Format : AC-3
Format/Info : Audio Coding 3
Mode extension : CM (complete main)
Format settings, Endianness : Big
Codec ID : A_AC3
Duration : 1h 33mn
Bit rate mode : Constant
Bit rate : 384 Kbps
Channel count : 6 channels
Channel positions : Front: L C R, Side: L R, LFE
Sampling rate : 48.0 KHz
Bit depth : 16 bits
Compression mode : Lossy
Stream size : 257 MiB (8%)
Language : English
Default : Yes
Forced : No
Text #1
ID : 3
Format : UTF-8
Codec ID : S_TEXT/UTF8
Codec ID/Info : UTF-8 Plain Text
Language : Russian
Default : Yes
Forced : Yes
Text #2
ID : 4
Format : UTF-8
Codec ID : S_TEXT/UTF8
Codec ID/Info : UTF-8 Plain Text
Language : English
Default : No
Forced : No
Menu
00:00:00.000 : en:Sudan 1863
00:10:13.000 : en:A Map
00:19:48.000 : en:Coffer Woods
00:27:04.000 : en:Mr. Stumpwater
00:37:46.000 : en:Grampa Jack's Museum
00:44:05.000 : en:Oak Grove Cemetery
00:53:28.000 : en:Cookbook
01:06:44.000 : en:New Order
01:19:06.000 : en:What's The Plan?
01:31:28.000 : en:Credits
Скриншоты
Скачать

Скачать торрент!

Как скачивать? · Что такое торрент? · Рейтинг и ограничения

Сайт не распространяет и не хранит электронные версии произведений, а лишь предоставляет доступ к создаваемому пользователями каталогу ссылок на торрент-файлы, которые содержат только списки хеш-сумм

[Профиль] [ЛС]
Показать сообщения:    
Ответить на тему

Текущее время: Сегодня 00:42

Часовой пояс: GMT + 4



Вы не можете начинать темы
Вы не можете отвечать на сообщения
Вы не можете редактировать свои сообщения
Вы не можете удалять свои сообщения
Вы не можете голосовать в опросах
Вы не можете прикреплять файлы к сообщениям
Вы не можете скачивать файлы