Пришелец из космоса и король Артур / Неопознанный летающий чудак / The Spaceman and King Arthur / Unidentified Flying Oddball (Расс Мейберри / Russ Mayberry) [1979, США, комедия, приключения, WEB-DL 720p] VO + Sub Rus, Eng + Original Eng

Ответить на тему
 
Автор Сообщение

user ®

Стаж: 7 лет 7 месяцев

Сообщений: 20008

Пост Пост: #1 от 19-Сен-2015 00:15

[Цитировать]

Пришелец из космоса и король Артур / Неопознанный летающий чудак /
The Spaceman and King Arthur / Unidentified Flying Oddball

Страна: США
Студия: Walt Disney Productions
Жанр: комедия, приключения
Год выпуска: 1979
Продолжительность: 01:33:12
Перевод: Одноголосый закадровый Max Nabokov
Cубтитры: русские, английские
Оригинальная аудиодорожка: английский
Режиссер: Расс Мейберри / Russ Mayberry
В ролях: Деннис Дуган, Джим Дэйл, Рон Муди, Кеннет Мор, Джон Ле Мезюрье, Родни Бьюэз, Шила Уайт, Роберт Битти, Сирил Шэпс, Кевин Бреннан
Описание: Американцы планируют запустить сверхзвуковой космический корабль «Stardust» в открытый космос. Изобретатель Том Тримбл создает робота по имени Гермес и придаёт ему свою внешность, чтобы он летел вместо людей. Но во время запуска ракеты происходит накладка, в результате которой на борту космического корабля оказываются и Гермес и Том.
Том пытается повернуть корабль вокруг земной орбиты, но вместо этого попадает в другое временное измерение. Он приземляется в Корнуолле в средних веках, где его берут в плен и ведут к Камелоту. Но во дворе короля Артура Тому удается продемонстрировать все преимущества технического прогресса и сохранить себе жизнь. Теперь он должен спасти королевство от хитросплетений интриг злодея сэра Мордреда и обманчивого мага Мерлина…

Кинопоиск
Sample
Тип релиза: WEB-DL 720p
Контейнер: MKV
Видео: MPEG4 AVC Video, H264, 1188x720, 23.976 fps, 3849 kbps
Аудио: Russian (AC3, 2 ch, 192 kbps, 16 bits, 48.0 KHz) - VO
Аудио 2: English (AC3, 2 ch, 192 kbps, 16 bits, 48.0 KHz) - оригинал
Формат субтитров: softsub (SRT)

MediaInfo
General
Unique ID : 248163272016847176351587830749725081682 (0xBAB281F67E3B4769B8C63F1790864052)
Complete name : K:\Unidentified Flying Oddball 1979 WEB-DL 720p.mkv
Format : Matroska
Format version : Version 4 / Version 2
File size : 2.81 GiB
Duration : 1h 33mn
Overall bit rate : 4 319 Kbps
Encoded date : UTC 2015-09-17 13:13:01
Writing application : mkvmerge v6.1.0 ('Old Devil') built on Mar 2 2013 14:32:37
Writing library : libebml v1.3.0 + libmatroska v1.4.0
Video
ID : 1
Format : AVC
Format/Info : Advanced Video Codec
Format profile : High@L3.1
Format settings, CABAC : No
Format settings, ReFrames : 2 frames
Codec ID : V_MPEG4/ISO/AVC
Duration : 1h 33mn
Bit rate : 3 849 Kbps
Width : 1 188 pixels
Height : 720 pixels
Display aspect ratio : 1.650
Frame rate mode : Constant
Frame rate : 23.976 fps
Color space : YUV
Chroma subsampling : 4:2:0
Bit depth : 8 bits
Scan type : Progressive
Bits/(Pixel*Frame) : 0.188
Stream size : 2.51 GiB (89%)
Language : English
Default : Yes
Forced : No
Color primaries : BT.709
Transfer characteristics : BT.709
Matrix coefficients : BT.709
Audio #1
ID : 2
Format : AC-3
Format/Info : Audio Coding 3
Mode extension : CM (complete main)
Format settings, Endianness : Big
Codec ID : A_AC3
Duration : 1h 33mn
Bit rate mode : Constant
Bit rate : 192 Kbps
Channel count : 2 channels
Channel positions : Front: L R
Sampling rate : 48.0 KHz
Bit depth : 16 bits
Compression mode : Lossy
Stream size : 128 MiB (4%)
Language : Russian
Default : Yes
Forced : No
Audio #2
ID : 3
Format : AC-3
Format/Info : Audio Coding 3
Mode extension : CM (complete main)
Format settings, Endianness : Big
Codec ID : A_AC3
Duration : 1h 33mn
Bit rate mode : Constant
Bit rate : 192 Kbps
Channel count : 2 channels
Channel positions : Front: L R
Sampling rate : 48.0 KHz
Bit depth : 16 bits
Compression mode : Lossy
Stream size : 128 MiB (4%)
Language : English
Default : No
Forced : No
Text #1
ID : 4
Format : UTF-8
Codec ID : S_TEXT/UTF8
Codec ID/Info : UTF-8 Plain Text
Language : Russian
Default : No
Forced : No
Text #2
ID : 5
Format : UTF-8
Codec ID : S_TEXT/UTF8
Codec ID/Info : UTF-8 Plain Text
Language : English
Default : No
Forced : No
Menu
00:00:00.000 : en:Stardust 1
00:03:35.000 : en:Opening Credits
00:06:00.000 : en:Hermes
00:08:14.000 : en:Tom Blasts Off
00:13:09.000 : en:Medieval England
00:19:01.000 : en:King Arthur's Court
00:29:06.000 : en:The Burning
00:35:53.000 : en:Duel With Mordred
00:41:43.000 : en:Field of Honor Joust
00:57:52.000 : en:Preparing For Battle
01:10:58.000 : en:The Battle At Dawn
01:27:51.000 : en:Departure
Скриншоты
Скачать

Скачать торрент!

Как скачивать? · Что такое торрент? · Рейтинг и ограничения

Сайт не распространяет и не хранит электронные версии произведений, а лишь предоставляет доступ к создаваемому пользователями каталогу ссылок на торрент-файлы, которые содержат только списки хеш-сумм

[Профиль] [ЛС]
Показать сообщения:    
Ответить на тему

Текущее время: Сегодня 01:48

Часовой пояс: GMT + 4



Вы не можете начинать темы
Вы не можете отвечать на сообщения
Вы не можете редактировать свои сообщения
Вы не можете удалять свои сообщения
Вы не можете голосовать в опросах
Вы не можете прикреплять файлы к сообщениям
Вы не можете скачивать файлы