Первый рыцарь при дворе короля Артура / A Kid in King Arthur\'s Court (Майкл Готтлиб / Michael Gottlieb) [1995, США, Венгрия, Великобритания, фэнтези, комедия, приключения, WEB-DL 720p] DVO (R5) + MVO (СТС) + Sub Rus, Eng + Original Eng

Ответить на тему
 
Автор Сообщение

user ®

Стаж: 7 лет 7 месяцев

Сообщений: 20008

Пост Пост: #1 от 19-Сен-2015 00:15

[Цитировать]

Первый рыцарь при дворе короля Артура / A Kid in King Arthur's Court
Страна: США, Венгрия, Великобритания
Студия: Tapestry Films, Trimark Pictures, Walt Disney Pictures
Жанр: фэнтези, комедия, приключения
Год выпуска: 1995
Продолжительность: 01:30:08
Перевод: Профессиональный (двухголосый закадровый) R5
Перевод 2: Профессиональный (многоголосый закадровый) СТС
Cубтитры: русские, английские
Оригинальная аудиодорожка: английский
Режиссер: Майкл Готтлиб / Michael Gottlieb
В ролях: Томас Иэн Николас, Джосс Экленд, Арт Малик, Палома Баэза, Кейт Уинслет, Дэниэл Крэйг, Дэвид Тайсолл, Рон Муди, Бэрри Стэнтон, Майкл Мельманн
Описание: Великий волшебник средневековья Мерлин не знал, что «Рыцари Резеды» — это не благородный рыцарский орден, а гордое название современной бейсбольной команды. В результате волшебный вихрь уносит 14-летнего Келвина, обычного подростка 90-х годов во времена рыцарских поединков, принцесс и волшебников.
Начинается калейдоскоп дворцовых интриг, поединков, похищений принцесс и прочих атрибутов средневековой рыцарской жизни. С помощью своих новых друзей, находчивости и некоторых достижений прогресса ХХ века Келвин, конечно же, побеждает зло и становится признанным первым рыцарем при дворе короля Артура.


Sample
Тип релиза: WEB-DL 720p
Контейнер: MKV
Видео: MPEG4 AVC Video, H264, 16:9, 1280x688, 23.976 fps, 3882 kbps
Аудио: Russian (AC3, 6 ch, 384 kbps, 16 bits, 48.0 KHz) - DVO R5
Аудио 2: Russian (AC3, 2 ch, 192 kbps, 16 bits, 48.0 KHz) - MVO СТС
Аудио 3: English (AC3, 6 ch, 384 kbps, 16 bits, 48.0 KHz) - оригинал

MediaInfo
General
Unique ID : 194993777879189840792955861501329998990 (0x92B26F82157945299D07B87FA89F048E)
Complete name : K:\A Kid In King Arthurs Court 1995 WEB-DL 720p.mkv
Format : Matroska
Format version : Version 4 / Version 2
File size : 3.11 GiB
Duration : 1h 30mn
Overall bit rate : 4 940 Kbps
Encoded date : UTC 2015-09-17 13:01:15
Writing application : mkvmerge v6.1.0 ('Old Devil') built on Mar 2 2013 14:32:37
Writing library : libebml v1.3.0 + libmatroska v1.4.0
Video
ID : 1
Format : AVC
Format/Info : Advanced Video Codec
Format profile : High@L3.1
Format settings, CABAC : No
Format settings, ReFrames : 2 frames
Codec ID : V_MPEG4/ISO/AVC
Duration : 1h 30mn
Bit rate : 3 882 Kbps
Width : 1 280 pixels
Height : 688 pixels
Display aspect ratio : 1.85:1
Frame rate mode : Constant
Frame rate : 23.976 fps
Color space : YUV
Chroma subsampling : 4:2:0
Bit depth : 8 bits
Scan type : Progressive
Bits/(Pixel*Frame) : 0.184
Stream size : 2.44 GiB (79%)
Language : English
Default : Yes
Forced : No
Color primaries : BT.709
Transfer characteristics : BT.709
Matrix coefficients : BT.709
Audio #1
ID : 2
Format : AC-3
Format/Info : Audio Coding 3
Mode extension : CM (complete main)
Format settings, Endianness : Big
Codec ID : A_AC3
Duration : 1h 30mn
Bit rate mode : Constant
Bit rate : 384 Kbps
Channel count : 6 channels
Channel positions : Front: L C R, Side: L R, LFE
Sampling rate : 48.0 KHz
Bit depth : 16 bits
Compression mode : Lossy
Stream size : 248 MiB (8%)
Title : DVO
Language : Russian
Default : Yes
Forced : No
Audio #2
ID : 3
Format : AC-3
Format/Info : Audio Coding 3
Mode extension : CM (complete main)
Format settings, Endianness : Big
Codec ID : A_AC3
Duration : 1h 30mn
Bit rate mode : Constant
Bit rate : 192 Kbps
Channel count : 2 channels
Channel positions : Front: L R
Sampling rate : 48.0 KHz
Bit depth : 16 bits
Compression mode : Lossy
Stream size : 124 MiB (4%)
Title : СТС
Language : Russian
Default : No
Forced : No
Audio #3
ID : 4
Format : AC-3
Format/Info : Audio Coding 3
Mode extension : CM (complete main)
Format settings, Endianness : Big
Codec ID : A_AC3
Duration : 1h 30mn
Bit rate mode : Constant
Bit rate : 384 Kbps
Channel count : 6 channels
Channel positions : Front: L C R, Side: L R, LFE
Sampling rate : 48.0 KHz
Bit depth : 16 bits
Compression mode : Lossy
Stream size : 248 MiB (8%)
Language : English
Default : No
Forced : No
Text #1
ID : 5
Format : UTF-8
Codec ID : S_TEXT/UTF8
Codec ID/Info : UTF-8 Plain Text
Language : Russian
Default : No
Forced : No
Text #2
ID : 6
Format : UTF-8
Codec ID : S_TEXT/UTF8
Codec ID/Info : UTF-8 Plain Text
Language : English
Default : No
Forced : No
Menu
00:00:00.000 : en:Opening Credits / "A Kid In King Arthur's Court"
00:03:09.000 : en:Welcome To Camelot
00:05:02.000 : en:The Excalibur
00:21:38.000 : en:Save Camelot
00:30:12.000 : en:Secret Love
00:40:02.000 : en:Black Knight
00:49:17.000 : en:Princess Katey Died?
00:59:38.000 : en:The Princess Is Alive!
01:10:12.000 : en:Black Magic
01:19:55.000 : en:Goodbye Sir Calvin
01:23:45.000 : en:Hero Without The Sword
01:26:40.000 : en:End Credits
Скриншоты
Скачать

Скачать торрент!

Как скачивать? · Что такое торрент? · Рейтинг и ограничения

Сайт не распространяет и не хранит электронные версии произведений, а лишь предоставляет доступ к создаваемому пользователями каталогу ссылок на торрент-файлы, которые содержат только списки хеш-сумм

[Профиль] [ЛС]
Показать сообщения:    
Ответить на тему

Текущее время: Сегодня 14:12

Часовой пояс: GMT + 4



Вы не можете начинать темы
Вы не можете отвечать на сообщения
Вы не можете редактировать свои сообщения
Вы не можете удалять свои сообщения
Вы не можете голосовать в опросах
Вы не можете прикреплять файлы к сообщениям
Вы не можете скачивать файлы