Твое имя на моей груди / Pounu Pounuthan (К. Бхагьярадж / K. Bhagyaraj) [1991, Индия, Мелодрама, драма, DVDRip-AVC] VO (Бахурани) + Sub Rus (на песни)

Ответить на тему
 
Автор Сообщение

user ®

Стаж: 12 лет

Сообщений: 15092

Пост Пост: #1 от 18-Сен-2015 14:57

[Цитировать]

Твое имя на моей груди / Рounu Pounuthan
Страна: Индия
Жанр: Мелодрама, драма
Год выпуска: 1991
Продолжительность: 02:29:35
Перевод: Одноголосый закадровый Бахурани
Cубтитры: русские (только на тексты песен)
Режиссер: К. Бхагьярадж / K. Bhagyaraj
В ролях: К. Бхагьярадж, Рохини
Описание: В деревню после 9 лет службы возвращается военный. Его встречают отец, сестра и невеста. Назначена свадьба. Но тот ли он за кого себя выдает…
Доп. информация:
Озвучка: Бахурани (Спасибо!)
Материалы: larisa_k (Спасибо!)
Перевод субтитров, работа с аудио: керелис (Спасибо!)
Сэмпл: http://multi-up.com/1066953
Качество видео: DVDRip-AVC
Формат видео: MKV
Видео: 720x544 (1.324:1), 25.652 fps, AVC, ~ 1618 Kbps, 0.161 bits/pixel
Аудио: Русский, 48 KHz, АС3, 2 ch, 192 Kbps
MediaInfo
General
Complete name : F:\Твое имя на моей груди\Tvoe.imja.na.moej.grudi.1991.DVDRip.x264.BWTorrents.mkv
Format : Matroska
File size : 1.93 GiB
Duration : 2h 29mn
Overall bit rate : 1 847 Kbps
Encoded date : UTC 2015-09-18 21:20:56
Writing application : mkvmerge v6.0.0 ('Coming Up For Air') built on Jan 20 2013 09:52:00
Writing library : libebml v1.3.0 + libmatroska v1.4.0
Video
ID : 1
Format : AVC
Format/Info : Advanced Video Codec
Format profile : High@L3.1
Format settings, CABAC : Yes
Format settings, ReFrames : 7 frames
Muxing mode : Container profile=Unknown@3.1
Codec ID : V_MPEG4/ISO/AVC
Duration : 2h 27mn
Bit rate : 1 618 Kbps
Nominal bit rate : 1 653 Kbps
Width : 720 pixels
Height : 544 pixels
Display aspect ratio : 4/3
Frame rate mode : Variable
Frame rate : 25.652 fps
Resolution : 24 bits
Colorimetry : 4:2:0
Scan type : Progressive
Bits/(Pixel*Frame) : 0.161
Stream size : 1.67 GiB (86%)
Writing library : x264 core 112
Encoding settings : cabac=1 / ref=7 / deblock=1:0:0 / analyse=0x3:0x113 / me=umh / subme=7 / psy=1 / psy_rd=1.00:0.00 / mixed_ref=1 / me_range=16 / chroma_me=1 / trellis=1 / 8x8dct=1 / cqm=0 / deadzone=21,11 / fast_pskip=1 / chroma_qp_offset=-2 / threads=3 / sliced_threads=0 / nr=0 / decimate=1 / interlaced=0 / constrained_intra=0 / bframes=3 / b_pyramid=2 / b_adapt=2 / b_bias=0 / direct=1 / weightb=1 / open_gop=0 / weightp=2 / keyint=300 / keyint_min=25 / scenecut=40 / intra_refresh=0 / rc_lookahead=50 / rc=2pass / mbtree=1 / bitrate=1653 / ratetol=1.0 / qcomp=0.60 / qpmin=3 / qpmax=51 / qpstep=4 / cplxblur=20.0 / qblur=0.5 / ip_ratio=1.40 / aq=1:1.00
Audio
ID : 2
Format : AC-3
Format/Info : Audio Coding 3
Codec ID : A_AC3
Duration : 2h 29mn
Bit rate mode : Constant
Bit rate : 192 Kbps
Channel(s) : 2 channels
Channel positions : L R
Sampling rate : 48.0 KHz
Stream size : 205 MiB (10%)
Language : Russian
Text
ID : 3
Format : UTF-8
Codec ID : S_TEXT/UTF8
Codec ID/Info : UTF-8 Plain Text
Title : ~ на песни ~
Language : Russian
Menu
00:00:00.000 : en:Chapter 1
00:03:57.704 : en:Chapter 2
00:06:17.810 : en:Chapter 3
00:11:07.133 : en:Chapter 4
00:19:58.931 : en:Chapter 5
00:28:39.017 : en:Chapter 6
00:41:34.175 : en:Chapter 7
00:48:37.539 : en:Chapter 8
00:52:30.046 : en:Chapter 9
01:02:14.305 : en:Chapter 10
01:09:26.762 : en:Chapter 11
01:20:26.955 : en:Chapter 12
01:26:53.441 : en:Chapter 13
01:45:49.062 : en:Chapter 14
01:49:00.803 : en:Chapter 15
01:54:03.998 : en:Chapter 16
02:02:28.444 : en:Chapter 17
02:04:15.184 : en:Chapter 18
02:10:26.463 : en:Chapter 19
02:20:49.777 : en:Chapter 20
Скриншоты
Скачать

Скачать торрент! Твое имя на моей груди / Pounu Pounuthan (К. Бхагьярадж / K. Bhagyaraj) [1991, Индия, Мелодрама, драма, DVDRip-AVC] VO (Бахурани) + Sub Rus (на песни)

Как скачивать? · Что такое торрент? · Рейтинг и ограничения

Сайт не распространяет и не хранит электронные версии произведений, а лишь предоставляет доступ к создаваемому пользователями каталогу ссылок на торрент-файлы, которые содержат только списки хеш-сумм

[Профиль] [ЛС]
Показать сообщения:    
Ответить на тему

Текущее время: Сегодня 16:10

Часовой пояс: GMT + 4



Вы не можете начинать темы
Вы не можете отвечать на сообщения
Вы не можете редактировать свои сообщения
Вы не можете удалять свои сообщения
Вы не можете голосовать в опросах
Вы не можете прикреплять файлы к сообщениям
Вы не можете скачивать файлы