Синие ночи Чеджу / Blue Nights of Jeju (Kim Gyu Tae / Ким Гю Тхэ) [2004, Южная Корея, драма, TVRip] VO

Ответить на тему
 
Автор Сообщение

user ®

Стаж: 13 лет

Сообщений: 15071

Пост Пост: #1 от 18-Сен-2015 11:51

[Цитировать]

Синие ночи Чеджу / Blue Nights of Jeju

Страна:
Южная Корея
Жанр: драма
Год выпуска: 2004
Продолжительность: 60 мин
Перевод: Samjogo Subbing Squad
Озвучка: Одноголосый закадровый - Релиз-группа Korean Craze
Роли озвучивала: Екатерина Шпортько
Cубтитры: есть (надписи, наименование фансаб-группы)
Режиссер: Kim Gyu Tae / Ким Гю Тхэ
В ролях: Eom Tae Woong - Ким Ги Тхэ
Min Ji Ah - Чхве Хи Сук
Kim Yoon Seok - Ким Юн Сок
Kim Gab Soo - Ким Кап Су
Jung Kyung Ho - Чан Кён Хо

Описание:
О чем мы мечтаем в юности, как не о счастье? Какое оно - счастье? О чем вспоминается человеку, который стоит у последней черты?
"Синие ночи Чеджу" - трогательная история мужчины, не выдержавшего груза навалившихся проблем. Переосмысливая свою жизнь, он понимает, что самым ярким и светлым моментом в ней была любовь. Но порой даже это светлое чувство не в силах преодолеть все несчастья. Со временем оно становится лишь горько-сладким воспоминанием.
Черно-белая гамма фильма подчеркивает искренность и жизненность этой печальной истории.
Сэмпл: http://multi-up.com/1066822

Качество видео:
TVRip
Формат видео: AVI
Видео: Xvid 736x400 29.97fps 1425kbps
Аудио: AC3 48000Hz stereo 192kbps
MediaInfo
Общее
Полное имя : C:\Видео\Синие ночи Чеджу Blue Nights of Jeju [Озвучка Korean Craze]\Blue Nights of Jeju.avi
Формат : AVI
Формат/Информация : Audio Video Interleave
Размер файла : 728 Мбайт
Продолжительность : 1 ч. 2 м.
Общий поток : 1629 Кбит/сек
Программа кодирования : VirtualDubMod 1.5.10.1 (build 2439/release)
Библиотека кодирования : VirtualDub build 32706/release
Видео
Идентификатор : 0
Формат : MPEG-4 Visual
Профиль формата : Advanced Simple@L5
Параметр BVOP формата : 2
Параметр QPel формата : Нет
Параметр GMC формата : Без точки перехода
Параметр матрицы формата : Default (H.263)
Режим смешивания : Сжатый битовый поток
Идентификатор кодека : XVID
Идентификатор кодека/Подсказка : XviD
Продолжительность : 1 ч. 2 м.
Битрейт : 1425 Кбит/сек
Ширина : 736 пикселей
Высота : 400 пикселей
Соотношение сторон : 1,85:1
Частота кадров : 29,970 кадров/сек
Цветовое пространство : YUV
Субдискретизация насыщенности : 4:2:0
Битовая глубина : 8 бит
Тип развёртки : Прогрессивная
Метод сжатия : С потерями
Бит/(Пиксели*Кадры) : 0.162
Размер потока : 637 Мбайт (87%)
Библиотека кодирования : XviD 65
Аудио
Идентификатор : 1
Формат : AC-3
Формат/Информация : Audio Coding 3
Расширение режима : CM (complete main)
Параметр Endianness формата : Big
Идентификатор кодека : 2000
Продолжительность : 1 ч. 2 м.
Вид битрейта : Постоянный
Битрейт : 192 Кбит/сек
Каналы : 2 канала
Расположение каналов : Front: L R
Частота : 48,0 КГц
Битовая глубина : 16 бит
Метод сжатия : С потерями
Размер потока : 85,8 Мбайт (12%)
Выравнивание : Соединение по промежуткам
Продолжительность промежутка : 33 мс. (1,00 видеокадр)
Время предзагрузки промежутка : 512 мс.
Скриншот c названием фильма Скриншоты
Скачать

Скачать торрент! Синие ночи Чеджу / Blue Nights of Jeju (Kim Gyu Tae / Ким Гю Тхэ) [2004, Южная Корея, драма, TVRip] VO

Как скачивать? · Что такое торрент? · Рейтинг и ограничения

Сайт не распространяет и не хранит электронные версии произведений, а лишь предоставляет доступ к создаваемому пользователями каталогу ссылок на торрент-файлы, которые содержат только списки хеш-сумм

[Профиль] [ЛС]
Показать сообщения:    
Ответить на тему

Текущее время: Сегодня 20:45

Часовой пояс: GMT + 4



Вы не можете начинать темы
Вы не можете отвечать на сообщения
Вы не можете редактировать свои сообщения
Вы не можете удалять свои сообщения
Вы не можете голосовать в опросах
Вы не можете прикреплять файлы к сообщениям
Вы не можете скачивать файлы