Шпион / Spy (Пол Фиг / Paul Feig) [2015, США, Боевик, комедия, криминал, BDRip-AVC] Dub + Sub Rus,Eng + Original Eng

Ответить на тему
 
Автор Сообщение

user ®

Стаж: 7 лет 7 месяцев

Сообщений: 20008

Пост Пост: #1 от 18-Сен-2015 11:51

[Цитировать]

ШпионSpy«Одна из пижонов. Одна из шпионов»

Страна: США
Жанр: Боевик, комедия, криминал
Год выпуска: 2015
Продолжительность: 02:10:22
Перевод: Профессиональный (дублированный) iTunes
Cубтитры: русские,английские
Оригинальная аудиодорожка: английский
Режиссер: Пол Фиг / Paul Feig
В ролях: Мелисса МакКарти, Джейсон Стэйтем, Джуд Лоу, Роуз Бирн, Миранда Харт, Бобби Каннавале, Морена Баккарин, Питер Серафинович, Эллисон Дженни, Ричард Брэйк
Описание: Сьюзан Купер всю свою жизнь мечтала стать секретным агентом и даже устроилась работать в ЦРУ. Однако, дальше сотрудника самой низкой ступени ей так и не удалось продвинуться. Понимая, что осуществить свою мечту практически невозможно, она все-таки продолжает надеяться на лучшее и с нетерпением ожидает своего шанса. И вскоре судьба дарит ей такую возможность. Лучший агент проваливает секретное задание, в ходе которого он должен был выяснить местонахождение ядерной бомбы, но, совершенно случайно, застрелил единственного человека, владеющего этой информацией.
Через некоторое время службе разведки становится известно, что Рейна Боянова знает, где находится бомба, но она также знает в лицо всех секретных агентов ЦРУ. Теперь у руководства не остается другого выбора, как воспользоваться услугами Сьюзан Купер, но сможет ли она справиться со столь сложной миссией?..
Доп. информация:
Релиз группы:
Качество видео: BDRip-AVC | Шпион / Spy (2015) [UNRATED] 1080p BD-Remux|HD Club|
Формат видео: MKV
Видео: 1146x480 (2:40:1), 23,976 fps, 3679 Кbps, 0.279 bit/pixe
Аудио: 48 kHz, AC3 Dolby Digital, 3/2 (L,C,R,l,r) + LFE ch, ~384.00 kbps avg DUB
Аудио 2: 48 kHz, AC3 Dolby Digital, 3/2 (L,C,R,l,r) + LFE ch, ~448.00 kbps avg ENG
Формат субтитров: softsub (SRT)
Доп. информация о субтитрах: отключаемые

Знаете ли Вы что
• Лабиринты известняковых пещер, показанные в фильме, — это реальные пещеры протяженностью в 23 мили, расположенные под пивоваренным заводом в западной части Будапешта, Венгрия.
• Во время съемок сцены, где Андрей Данилко (Верка Сердючка) на площади исполняет песню «Dancing Lasha Tumbai», было задействовано более 300 статистов.
• Большая часть фильма была снята в окрестностях озера Балатон в Венгрии.
• В сценах драк использовались филиппинские боевые искусства. Для подготовки к этим сценам Мелисса МакКарти проходила обучение у Дайаны Ли Иносанто.
• Во время съемок сцены в самолете, когда крутое пикирование вызвало эффект невесомости, самолет был закреплен на специальном подвесе, который позволял наклонять и поворачивать его в любом направлении. Все движения самолета контролировались при помощи гидравлического управления, а к актерам и каскадерам были привязаны специальные тросы для создания такого ощущения, будто они плывут. Для подготовки к этой сцене Роуз Бирн тренировалась в бассейне, чтобы научиться контролировать свои движения.
• Фильм носил рабочее название Susan Cooper («Сьюзан Купер»), однако 28 марта 2014 года название было изменено на «Шпион».
• Несколько недель репетиций потребовалось, чтобы снять сцену драки на кухне. Непосредственно на сами съемки ушло два дня.
• Во время начальных титров звучит песня Айви Леван «Who Can You Trust».
• Часть экшн-сцен и сцены с вертолетом снимались на открытой съемочной площадке студии Fot and Origo в Будапеште, Венгрия.
• Персонаж Нэнси был написан Полом Фигом именно для Миранды Харт.
• Основные съемки фильма заняли около 12 недель.
• Самой большой конструкцией на съемочной площадке была комната связи в ЦРУ.
• Для оператора Роберта Д. Йоумена этот фильм стал первым, снятым на цифру.
• В эпизодической роли туриста, спрашивающего о том, как пройти в Burger King, снялся муж Мелиссы МакКарти Бен Фэлкоун.
• Режиссер Пол Фиг снялся в эпизодической роли. Он сыграл пьяного человека, который натыкается на стену и падает, когда Мелисса МакКарти прибывает в свой отель в Париже.
Ошибки в фильме
• В частном самолете в бокале Сьюзан Купер уровень шампанского резко меняется при смене кадра.
• Во время поездки на красном Альфа Ромео по Риму, в одной из сцен меняется приборная панель автомобиля и отверстия вентиляции.
• После того как героиня Роуз Бирн выплескивает кружку воды в лицо героини Мелиссы МакКарти, степень сырости волос Сьюзен постоянно меняется.
• Во время погони за БМВ на скутере, Сьюзан Купер вместе со скутером приземляется в свежезалитый бетон. В следующем кадре скутер чистый.
MediaInfo
General
Unique ID : 238412481327989647748757031207758837025 (0xB35C92DD61D5BFF0823E71CFB1E9B521)
Complete name : E:\Мои рипы\Шпион\Spy by_IVAN@190282.mkv
Format : Matroska
Format version : Version 4 / Version 2
File size : 4.19 GiB
Duration : 2h 10mn
Overall bit rate : 4 603 Kbps
Encoded date : UTC 2015-09-17 22:21:57
Writing application : mkvmerge v8.2.0 ('World of Adventure') 64bit
Writing library : libebml v1.3.1 + libmatroska v1.4.2
Attachements : 8f9118f123c2aa4727f451254e2e764a_500.jpg
DURATION : 02:09:05.660000000
NUMBER_OF_FRAMES : 2916
NUMBER_OF_BYTES : 87100
_STATISTICS_WRITING_APP : mkvmerge v8.2.0 ('World of Adventure') 64bit
_STATISTICS_WRITING_DATE_UT : 2015-09-17 22:21:57
_STATISTICS_TAGS : BPS DURATION NUMBER_OF_FRAMES NUMBER_OF_BYTES
Video
ID : 1
Format : AVC
Format/Info : Advanced Video Codec
Format profile : High@L4.1
Format settings, CABAC : Yes
Format settings, ReFrames : 12 frames
Codec ID : V_MPEG4/ISO/AVC
Duration : 2h 10mn
Bit rate : 3 679 Kbps
Width : 1 146 pixels
Height : 480 pixels
Display aspect ratio : 2.40:1
Frame rate mode : Constant
Frame rate : 23.976 fps
Color space : YUV
Chroma subsampling : 4:2:0
Bit depth : 8 bits
Scan type : Progressive
Bits/(Pixel*Frame) : 0.279
Stream size : 3.35 GiB (80%)
Title : Spy by_IVAN@190282
Writing library : x264 core 148 r2597kMod e86f3a1
Encoding settings : cabac=1 / ref=12 / deblock=1:-3:-2 / analyse=0x3:0x133 / me=umh / subme=11 / psy=1 / fade_compensate=0.00 / psy_rd=1.00:0.05 / mixed_ref=1 / me_range=48 / chroma_me=1 / trellis=2 / 8x8dct=1 / cqm=0 / deadzone=21,11 / fast_pskip=0 / chroma_qp_offset=-3 / threads=6 / lookahead_threads=6 / sliced_threads=0 / nr=0 / decimate=1 / interlaced=0 / bluray_compat=0 / constrained_intra=0 / fgo=0 / bframes=16 / b_pyramid=2 / b_adapt=2 / b_bias=0 / direct=3 / weightb=1 / open_gop=0 / weightp=2 / keyint=240 / keyint_min=23 / scenecut=40 / intra_refresh=0 / rc_lookahead=60 / rc=crf / mbtree=0 / crf=16.8000 / qcomp=0.60 / qpmin=0 / qpmax=69 / qpstep=4 / vbv_maxrate=50000 / vbv_bufsize=62500 / crf_max=0.0 / nal_hrd=none / filler=0 / ip_ratio=1.40 / pb_ratio=1.30 / aq=2:1.10
Language : English
Default : Yes
Forced : No
Color range : Limited
Color primaries : BT.709
Transfer characteristics : BT.709
Matrix coefficients : BT.709
DURATION : 02:10:23.941000000
NUMBER_OF_FRAMES : 187587
NUMBER_OF_BYTES : 3685443506
_STATISTICS_WRITING_APP : mkvmerge v8.2.0 ('World of Adventure') 64bit
_STATISTICS_WRITING_DATE_UT : 2015-09-17 22:21:57
_STATISTICS_TAGS : BPS DURATION NUMBER_OF_FRAMES NUMBER_OF_BYTES
Audio #1
ID : 2
Format : AC-3
Format/Info : Audio Coding 3
Mode extension : CM (complete main)
Format settings, Endianness : Big
Codec ID : A_AC3
Duration : 2h 10mn
Bit rate mode : Constant
Bit rate : 384 Kbps
Channel(s) : 6 channels
Channel positions : Front: L C R, Side: L R, LFE
Sampling rate : 48.0 KHz
Compression mode : Lossy
Stream size : 358 MiB (8%)
Title : Dub
Language : Russian
Default : Yes
Forced : No
Audio #2
ID : 3
Format : AC-3
Format/Info : Audio Coding 3
Mode extension : CM (complete main)
Format settings, Endianness : Big
Codec ID : A_AC3
Duration : 2h 10mn
Bit rate mode : Constant
Bit rate : 448 Kbps
Channel(s) : 6 channels
Channel positions : Front: L C R, Side: L R, LFE
Sampling rate : 48.0 KHz
Compression mode : Lossy
Stream size : 418 MiB (10%)
Title : Eng
Language : English
Default : No
Forced : No
Text #1
ID : 4
Format : UTF-8
Codec ID : S_TEXT/UTF8
Codec ID/Info : UTF-8 Plain Text
Title : Rus forsed
Language : Russian
Default : Yes
Forced : Yes
Text #2
ID : 5
Format : UTF-8
Codec ID : S_TEXT/UTF8
Codec ID/Info : UTF-8 Plain Text
Title : Rus
Language : Russian
Default : No
Forced : No
Text #3
ID : 6
Format : UTF-8
Codec ID : S_TEXT/UTF8
Codec ID/Info : UTF-8 Plain Text
Title : Fra
Language : French
Default : No
Forced : Yes
Text #4
ID : 7
Format : UTF-8
Codec ID : S_TEXT/UTF8
Codec ID/Info : UTF-8 Plain Text
Title : Eng
Language : English
Default : No
Forced : No
Menu
00:00:00.000 : en:Chapter 1
00:07:33.411 : en:Chapter 2
00:12:00.302 : en:Chapter 3
00:12:59.445 : en:Chapter 4
00:15:55.370 : en:Chapter 5
00:20:56.922 : en:Chapter 6
00:23:15.434 : en:Chapter 7
00:25:52.675 : en:Chapter 8
00:29:59.255 : en:Chapter 9
00:38:14.041 : en:Chapter 10
00:46:43.842 : en:Chapter 11
00:49:46.315 : en:Chapter 12
00:53:19.528 : en:Chapter 13
00:55:10.222 : en:Chapter 14
00:58:07.858 : en:Chapter 15
01:08:42.326 : en:Chapter 16
01:12:22.337 : en:Chapter 17
01:15:45.707 : en:Chapter 18
01:19:10.162 : en:Chapter 19
01:22:46.836 : en:Chapter 20
01:25:09.686 : en:Chapter 21
01:28:07.738 : en:Chapter 22
01:31:15.552 : en:Chapter 23
01:36:02.756 : en:Chapter 24
01:37:35.890 : en:Chapter 25
01:40:35.404 : en:Chapter 26
01:45:16.518 : en:Chapter 27
01:48:44.475 : en:Chapter 28
01:50:31.750 : en:Chapter 29
01:52:36.541 : en:Chapter 30
01:53:08.448 : en:Chapter 31
01:59:16.356 : en:Chapter 32
02:07:11.832 : en:Chapter 33
x264 log
VIDEO ENCODING
x264 [info]: frame I:2237 Avg QP:15.04 size:103860 PSNR Mean Y:47.84 U:50.28 V:50.33 Avg:48.51 Global:48.01
x264 [info]: frame P:43604 Avg QP:16.71 size: 39466 PSNR Mean Y:45.87 U:48.42 V:48.48 Avg:46.56 Global:45.87
x264 [info]: frame B:141746 Avg QP:18.72 size: 12221 PSNR Mean Y:45.35 U:47.98 V:48.13 Avg:46.05 Global:45.35
x264 [info]: consecutive B-frames: 3.5% 4.0% 7.9% 24.1% 20.0% 29.5% 5.8% 1.9% 1.1% 0.6% 0.5% 0.2% 0.3% 0.1% 0.0% 0.1% 0.2%
x264 [total]: encoded 187587 frames, 6.78 fps, 3768.38 kb/s, duration 7:41:13.39
Скриншот c названием фильма Скриншоты Убедительная просьба пожалуйста кто скачал не бросайте раздачу!!!
Скачать

Скачать торрент!

Как скачивать? · Что такое торрент? · Рейтинг и ограничения

Сайт не распространяет и не хранит электронные версии произведений, а лишь предоставляет доступ к создаваемому пользователями каталогу ссылок на торрент-файлы, которые содержат только списки хеш-сумм

[Профиль] [ЛС]
Показать сообщения:    
Ответить на тему

Текущее время: Сегодня 04:46

Часовой пояс: GMT + 4



Вы не можете начинать темы
Вы не можете отвечать на сообщения
Вы не можете редактировать свои сообщения
Вы не можете удалять свои сообщения
Вы не можете голосовать в опросах
Вы не можете прикреплять файлы к сообщениям
Вы не можете скачивать файлы