Хранительницы голубей / The Dovekeepers (Ив Симоно / Yves Simoneau) [2015, США, Драма, TVRip] Sub Rus + Original Eng

Ответить на тему
 
Автор Сообщение

user ®

Стаж: 7 лет 7 месяцев

Сообщений: 20008

Пост Пост: #1 от 17-Сен-2015 23:24

[Цитировать]

Хранительницы голубей / The Dovekeepers
Страна: США
Жанр: Драма
Год выпуска: 2015
Продолжительность: ~1:25 х 2
Перевод: Субтитры русские,вшитые.Транс Тайтлс ЛТД
Оригинальная аудиодорожка: английский

Режиссер: Ив Симоно/Yves Simoneau
В ролях: Сем Нейл,Рэйчел Броснахэн,Майа Лаура Аттард,Андре Агиус,Джонас Армстронг,Диего Бонета,Мануэль Коши,Андрей Клод,Коте де Пабло,Мидо Хамада,Сэм Хэзелдайн и др.
Описание:История, рассказанная двумя женщинами,хозяйками голубятни, с красивейшими белыми птицами, основана на реальных событиях. Время действия — 70 год до нашей эры, место действия — территория Иудейской пустыни поблизости от Мёртвого моря.
Римская империя ещё чувствует в себе силы, чтобы завоёвывать всё новые территории.
Сейчас она нацелена на Иудею и постепенно подминает её под себя. Иерусалим уже пал, последним оплотом сопротивления осталась грозная крепость Масада.
Жители осаждённого римлянами города являют чудеса стойкости,героизма в ежедневной борьбе за выживание. Масада, которая несколько лет упорно сопротивлялась Римской империи. Осада города длилась по разным данным от трех, до пяти лет.
И в этих, нечеловечески жестоких условиях живет любовь,рождаются дети и жизнь продолжается

скрытый текст
Доп. информация: Крепость Массада... Последний оплот и надежда Великого восстания против римлян (1-я Иудейская война)... Легендарные события двухтысячелетней давности, леденящая душу повесть о воинах, предпочетших самоубийство поруганию и рабству
Массада (Масада) или на иврите Мецада
- имя собственное этой уникальной крепости-скалы, несомненно имеющее
в иврите также и общий корень со словом «мецуда» – универсальным понятием крепости или цитадели.
Массада расположена вблизи города Арад, у шоссе Эйн-Геди – Эйн-Бокек,
в непосредственной близости от южного побережья Мёртвого моря.
На вершине одной из скал Иудейской пустыни, возвышающейся почти на полкилометра над Мёртвым морем,
в 25 году до н. э. царь Ирод Великий (также: Ирод I Великий или Геродус сын Антипатра),
потомок обращённых в иудаизм идумеев, соорудил убежище для себя и своей семьи,
значительно укрепив и достроив уже существовавшую здесь крепость хасмонейского периода.
Раскопки на территории Массады обнаружили большое количество сооружений
периода правления царя Ирода, в числе которых – потрясающие дворцы,
банный комплекс, продовольственные, хозяйственные и военные склады,
тщательно спланированная система водохранилищ и водоснабжения,
причём многое из найденного было добротно восстановлено в той или иной степени.
Также обнаружены и прекрасно отреставрированы сооружения периода зелотов
или ревнителей (канаим – ивр.),
со 2-й половины I в. до н. э. и на протяжении I века н.э. любыми средствами и методами боровшихся
против эллинистического влияния и римской оккупации,
в том числе – оборонительную систему защитников крепости, а также практически весь,
причём исключительно хорошо сохранившийся римский осадный комплекс,
(по мнению многих специалистов являющийся наиболее показательным в мире образцом подобной системы).
http://israel-eilat.ru/masada/
Сэмпл: https://yadi.sk/i/ssoEnTMLj9e2j
Качество видео: TVRip
Формат видео: AVI
Видео: 720x544 (1.32:1), 25 fps, XviD build 73 ~1994 kbps avg, 0.20 bit/pixel
Аудио: 48 kHz, MPEG Layer 3, 2 ch, ~128.00 kbps avg
Формат субтитров: hardsub (неотключаемые)
MediaInfo
Complete name : L:\Downloads\Dovekeepers\Dovekeepers-1.avi
Format : AVI
Format/Info : Audio Video Interleave
File size : 1.28 GiB
Duration : 1h 25mn
Overall bit rate : 2 132 Kbps
Video
ID : 0
Format : MPEG-4 Visual
Format profile : Advanced Simple@L5
Format settings, BVOP : 2
Format settings, QPel : No
Format settings, GMC : No warppoints
Format settings, Matrix : Default (H.263)
Codec ID : XVID
Codec ID/Hint : XviD
Duration : 1h 25mn
Bit rate : 1 994 Kbps
Width : 720 pixels
Height : 544 pixels
Display aspect ratio : 4:3
Frame rate : 25.000 fps
Color space : YUV
Chroma subsampling : 4:2:0
Bit depth : 8 bits
Scan type : Progressive
Compression mode : Lossy
Bits/(Pixel*Frame) : 0.204
Stream size : 1.20 GiB (94%)
Writing library : XviD 73
Audio
ID : 1
Format : MPEG Audio
Format version : Version 1
Format profile : Layer 3
Mode : Joint stereo
Mode extension : MS Stereo
Codec ID : 55
Codec ID/Hint : MP3
Duration : 1h 25mn
Bit rate mode : Constant
Bit rate : 128 Kbps
Channel(s) : 2 channels
Sampling rate : 48.0 KHz
Compression mode : Lossy
Stream size : 78.6 MiB (6%)
Alignment : Split accross interleaves
Interleave, duration : 40 ms (1.00 video frame)
Interleave, preload duration : 500 ms
Скриншот c названием фильма Скриншоты
Скачать

Скачать торрент!

Как скачивать? · Что такое торрент? · Рейтинг и ограничения

Сайт не распространяет и не хранит электронные версии произведений, а лишь предоставляет доступ к создаваемому пользователями каталогу ссылок на торрент-файлы, которые содержат только списки хеш-сумм

[Профиль] [ЛС]
Показать сообщения:    
Ответить на тему

Текущее время: Сегодня 20:04

Часовой пояс: GMT + 4



Вы не можете начинать темы
Вы не можете отвечать на сообщения
Вы не можете редактировать свои сообщения
Вы не можете удалять свои сообщения
Вы не можете голосовать в опросах
Вы не можете прикреплять файлы к сообщениям
Вы не можете скачивать файлы