Доктор Мамфорд / Mumford (Лоуренс Кэздан / Lawrence Kasdan) [1999, США, драма, комедия, WEB-DL 720p] DVO + Sub Eng + Original Eng

Ответить на тему
 
Автор Сообщение

user ®

Стаж: 7 лет 7 месяцев

Сообщений: 20008

Пост Пост: #1 от 17-Сен-2015 04:51

[Цитировать]

Доктор Мамфорд / Mumford
Страна: США
Студия: Touchstone Pictures, Kasdan Pictures
Жанр: драма, комедия
Год выпуска: 1999
Продолжительность: 01:51:40
Перевод: Профессиональный (двухголосый закадровый)
Cубтитры: английские
Оригинальная аудиодорожка: английский
Режиссер: Лоуренс Кэздан / Lawrence Kasdan
В ролях: Лорен Дин, Хоуп Дэвис, Джейсон Ли, Элфри Вудард, Мэри МакДоннел, Прюитт Тэйлор Винс, Зои Дешанель, Мартин Шорт, Дэвид Пэймер, Джейн Адамс...
Описание: Небольшому американскому городку не хватало только нового психиатра. Два врача успешно справлялись с обилием пациентов, когда на помощь им неожиданно пришел таинственный доктор Мамфорд.
Хотя новоиспеченный Фрейд пошел наперекор признанным методам и все делал будто бы «назло учебнику психологии», у него скоро не стало отбою от клиентов! Но вскоре доктор Мамфорд нарушил основное положение врачебной этики и влюбился в свою очаровательную пациентку. Либо он так ничему и не научился на медицинском факультете, либо он — не тот, за кого себя выдает…
II Сэмпл II IMDB II
Доп. информация:
За двухголосый перевод спасибо alenavova
Тип релиза: WEB-DL 720p
Контейнер: MKV
Видео: AVC / 1280x542 / 2.36:1 / 23.976fps / Bit rate / 3974Kbps
Аудио 1: AC3 / 48.0 KHz / 2ch. / 192kbps / rus / dvo
Аудио 2: AC3 / 48.0 KHz / 6ch. / 384kbps / eng
Формат субтитров: softsub (SRT)
MediaInfo
Общее
Уникальный идентификатор : 213828632542602205702038119805358133306 (0xA0DDE58A135DF5C690F32490E59F503A)
Полное имя : H:\!_Torrent\Mumford.1999.WEB-DL.720p_by_vedigo.mkv
Формат : Matroska
Версия формата : Version 4 / Version 2
Размер файла : 3,62 Гбайт
Продолжительность : 1 ч. 51 м.
Общий поток : 4643 Кбит/сек
Название фильма : Mumford.1999.WEB-DL.720p_by_vedigo
Дата кодирования : UTC 2015-09-16 07:04:50
Программа кодирования : mkvmerge v8.3.0 ('Over the Horizon') 64bit
Библиотека кодирования : libebml v1.3.1 + libmatroska v1.4.2
DURATION : 01:51:40.448000000
NUMBER_OF_FRAMES : 209389
NUMBER_OF_BYTES : 160810752
_STATISTICS_WRITING_APP : mkvmerge v8.3.0 ('Over the Horizon') 64bit
_STATISTICS_WRITING_DATE_UTC : 2015-09-16 07:04:50
_STATISTICS_TAGS : BPS DURATION NUMBER_OF_FRAMES NUMBER_OF_BYTES
Видео
Идентификатор : 1
Формат : AVC
Формат/Информация : Advanced Video Codec
Профиль формата : Main@L3.1
Параметр CABAC формата : Нет
Параметр ReFrames формата : 2 кадра
Идентификатор кодека : V_MPEG4/ISO/AVC
Продолжительность : 1 ч. 51 м.
Битрейт : 3974 Кбит/сек
Ширина : 1280 пикселей
Высота : 542 пикселя
Соотношение сторон : 2,35:1
Режим частоты кадров : Постоянный
Частота кадров : 23,976 кадра/сек
Цветовое пространство : YUV
Субдискретизация насыщенности : 4:2:0
Битовая глубина : 8 бит
Тип развёртки : Прогрессивная
Бит/(Пиксели*Кадры) : 0.239
Размер потока : 3,10 Гбайт (86%)
Заголовок : Mumford.1999.WEB-DL.720p_by_vedigo
Default : Нет
Forced : Нет
Цветовой диапазон : Limited
Основные цвета : BT.709
Характеристики трансфера : BT.709
Коэффициенты матрицы : BT.709
Аудио #1
Идентификатор : 2
Формат : AC-3
Формат/Информация : Audio Coding 3
Расширение режима : CM (complete main)
Параметр Endianness формата : Big
Идентификатор кодека : A_AC3
Продолжительность : 1 ч. 51 м.
Вид битрейта : Постоянный
Битрейт : 192 Кбит/сек
Каналы : 2 канала
Расположение каналов : Front: L R
Частота : 48,0 КГц
Метод сжатия : С потерями
Размер потока : 153 Мбайт (4%)
Заголовок : DVO
Язык : Russian
Default : Да
Forced : Нет
Аудио #2
Идентификатор : 3
Формат : AC-3
Формат/Информация : Audio Coding 3
Расширение режима : CM (complete main)
Параметр Endianness формата : Big
Идентификатор кодека : A_AC3
Продолжительность : 1 ч. 51 м.
Вид битрейта : Постоянный
Битрейт : 384 Кбит/сек
Каналы : 6 каналов
Расположение каналов : Front: L C R, Side: L R, LFE
Частота : 48,0 КГц
Метод сжатия : С потерями
Размер потока : 307 Мбайт (8%)
Заголовок : original
Язык : English
Default : Нет
Forced : Нет
Текст
Идентификатор : 4
Формат : UTF-8
Идентификатор кодека : S_TEXT/UTF8
Идентификатор кодека/Информация : UTF-8 Plain Text
Заголовок : subtitle eng
Язык : English
Default : Нет
Forced : Нет
Меню
00:00:00.000 : en:Main Title/Welcome to Mumford
00:04:20.000 : en:Lionel Dillard
00:06:29.000 : en:Althea Brockett
00:09:13.000 : en:Nessa Watkins
00:12:11.000 : en:The Three-Billion-Dollar Friend
00:17:38.000 : en:A Game of Catch
00:20:26.000 : en:Sofie Crisp
00:24:14.000 : en:An Evening with the Brocketts
00:32:23.000 : en:Classic Symptoms/Unusual Treatment
00:36:41.000 : en:A Big Secret and a Bigger Secret
00:42:04.000 : en:Everyone Has a Past (Some Just More Than Others)
00:51:14.000 : en:The Paper Route
00:54:00.000 : en:Lionel Smells a Rat
00:55:16.000 : en:Reality Checks
01:00:21.000 : en:Sparks with the Salade Nicoise
01:02:12.000 : en:Professional Curiosities
01:05:35.000 : en:Althea's Breakthrough
01:09:13.000 : en:Inside Panda Modem
01:14:57.000 : en:Calling on the Crisps
01:17:08.000 : en:A Gift for Henry
01:21:35.000 : en:A Little Too Close to Home
01:23:53.000 : en:Nessa Turns Things Around
01:25:37.000 : en:The State Steps In
01:26:25.000 : en:A Most Unlikely Patient
01:28:22.000 : en:"Till It Shines"
01:31:47.000 : en:A Question of Transference
01:35:57.000 : en:Advice from a Friend
01:37:09.000 : en:The Past Catches Up to Mumford
01:43:22.000 : en:Truth and Consequences
01:46:06.000 : en:End Credits
Скриншоты
Скачать

Скачать торрент!

Как скачивать? · Что такое торрент? · Рейтинг и ограничения

Сайт не распространяет и не хранит электронные версии произведений, а лишь предоставляет доступ к создаваемому пользователями каталогу ссылок на торрент-файлы, которые содержат только списки хеш-сумм

[Профиль] [ЛС]
Показать сообщения:    
Ответить на тему

Текущее время: Сегодня 02:14

Часовой пояс: GMT + 4



Вы не можете начинать темы
Вы не можете отвечать на сообщения
Вы не можете редактировать свои сообщения
Вы не можете удалять свои сообщения
Вы не можете голосовать в опросах
Вы не можете прикреплять файлы к сообщениям
Вы не можете скачивать файлы