Клин клином / Fire with Fire (Дункан Гиббинс / Duncan Gibbins) [1986, США, драма, мелодрама, BDRip 720p] AVO (Антон Алексеев) + MVO (Paramount) + Original Eng

Ответить на тему
 
Автор Сообщение

user ®

Стаж: 7 лет 7 месяцев

Сообщений: 20008

Пост Пост: #1 от 16-Сен-2015 19:33

[Цитировать]

Клин клином / Fire with Fire
Страна: США
Студия: Paramount Pictures
Жанр: Молодёжная драма, мелодрама
Год выпуска: 1986
Продолжительность: 01:44:20
Перевод: Авторский (одноголосый закадровый) Антон Алексеев
Перевод 2: Профессиональный (многоголосый закадровый) Paramount
Cубтитры: нет
Оригинальная аудиодорожка: английский
Режиссер: Дункан Гиббинс / Duncan Gibbins
В ролях: Крэйг Шеффер, Вирджиния Мэдсен, Джон Полито, Дж.Дж. Коэн, Кейт Рид, Джин Смарт, Тим Расс, Дэвид Харрис, Д.Б. Суини, Dorrie Joiner
Описание: В этой основанной на реальных событиях молодёжной мелодраме Джо Фиск, несовершеннолетний правонарушитель, влюбляется в Лизу Тейлор, красивую девушку и ученицу католической школы, расположенную в орегонском лесу. Они познакомились случайно, когда проблемный молодой человек вышел на природу и увидел прекрасную девушку, плавающую в небольшом водоёме. Их влечет друг к другу, но в школе не поощряются контакты с представителями противоположного пола, поэтому когда их отношения обнаружились, то возникли проблемы с окружающими, что заставило молодых любовников бежать. Остаётся открытым вопрос: смогут ли они достаточно длительное время обходить закон и органы власти, чтобы найти счастье?
Доп. информация: В русской дорожке (VO Антон Алексеев) есть не переведённый фрагмент 00:10:50 - 00:13:20, поэтому по-умолчанию выставлена дорожка (MVO Paramount) из [url=http://***/forum/viewtopic.php?t=5020674]BDRip[/url]
Исходник [url=http://***/forum/viewtopic.php?t=4140334]BDRemux[/url]
Сэмпл:https://yadi.sk/i/anFhwHebj6zgz

Тип релиза: BDRip 720p
Контейнер: MKV
Видео: x264, 1280x720, 16:9, 6108 Кбит/сек, 23.976 fps, 0.276
Аудио: RUS - AC-3 Dolby Digital, 128 Кбит/сек, 1 канал, 48,0 КГц (MVO Paramount)
Аудио 2: RUS - AC-3 Dolby Digital, 192 Кбит/сек, 2 канала, 48,0 КГц (VO Антон Алексеев)
Аудио 3: ENG - FLAC, 294 Кбит/сек, 1 канал, 48,0 КГц
х264 лог
x264 [info]: frame I:872 Avg QP:18.46 size: 97326
x264 [info]: frame P:27757 Avg QP:19.71 size: 52914
x264 [info]: frame B:121467 Avg QP:21.56 size: 27395
x264 [info]: consecutive B-frames: 0.9% 1.1% 4.0% 13.4% 13.1% 47.6% 6.6% 1.2% 6.6% 1.0% 2.8% 1.5%
x264 [info]: mb I I16..4: 1.4% 91.8% 6.9%
x264 [info]: mb P I16..4: 0.3% 28.3% 1.1% P16..4: 33.3% 24.3% 10.4% 0.0% 0.0% skip: 2.2%
x264 [info]: mb B I16..4: 0.0% 4.3% 0.1% B16..8: 42.1% 16.0% 4.2% direct:12.3% skip:21.0% L0:45.3% L1:43.7% BI:11.0%
x264 [info]: 8x8 transform intra:95.4% inter:70.5%
x264 [info]: coded y,uvDC,uvAC intra: 97.7% 86.6% 59.3% inter: 50.3% 34.1% 8.6%
x264 [info]: i16 v,h,dc,p: 15% 9% 8% 68%
x264 [info]: i8 v,h,dc,ddl,ddr,vr,hd,vl,hu: 8% 7% 6% 10% 15% 14% 14% 12% 14%
x264 [info]: i4 v,h,dc,ddl,ddr,vr,hd,vl,hu: 8% 6% 1% 9% 17% 17% 16% 12% 13%
x264 [info]: i8c dc,h,v,p: 42% 22% 18% 18%
x264 [info]: Weighted P-Frames: Y:12.2% UV:5.7%
x264 [info]: ref P L0: 38.8% 12.1% 19.5% 7.8% 6.7% 4.9% 4.5% 2.7% 2.7% 0.4% 0.0%
x264 [info]: ref B L0: 69.2% 13.2% 7.0% 3.7% 2.9% 2.4% 1.3% 0.4%
x264 [info]: ref B L1: 91.2% 8.8%
x264 [info]: kb/s:6237.61
x264 [total]: encoded 150096 frames, 5.15 fps, 6237.61 kb/s
MediaInfo
Полное имя : K:\Клин клином (Fire With Fire. 1986).mkv
Формат : Matroska
Версия формата : Version 2
Размер файла : 5,00 Гбайт
Продолжительность : 1 ч. 44 м.
Режим общего битрейта : Переменный
Общий поток : 6854 Кбит/сек
Дата кодирования : UTC 2015-09-15 13:16:19
Программа кодирования : mkvmerge v7.9.0 ('Birds') 32bit
Библиотека кодирования : libebml v1.3.1 + libmatroska v1.4.2
Attachements : cover.jpg
Видео
Идентификатор : 1
Формат : AVC
Формат/Информация : Advanced Video Codec
Профиль формата : High@L4.1
Параметр CABAC формата : Да
Параметр ReFrames формата : 9 кадров
Идентификатор кодека : V_MPEG4/ISO/AVC
Продолжительность : 1 ч. 44 м.
Ширина : 1280 пикселей
Высота : 720 пикселей
Соотношение сторон : 16:9
Режим частоты кадров : Постоянный
Частота кадров : 23,976 кадра/сек
Цветовое пространство : YUV
Субдискретизация насыщенности : 4:2:0
Битовая глубина : 8 бит
Тип развёртки : Прогрессивная
Библиотека кодирования : x264 core 130 r2273 b3065e6
Настройки программы : cabac=1 / ref=9 / deblock=1:-3:-3 / analyse=0x3:0x113 / me=umh / subme=10 / psy=1 / psy_rd=1.00:0.10 / mixed_ref=1 / me_range=32 / chroma_me=1 / trellis=2 / 8x8dct=1 / cqm=0 / deadzone=21,11 / fast_pskip=1 / chroma_qp_offset=-3 / threads=4 / lookahead_threads=1 / sliced_threads=0 / nr=0 / decimate=0 / interlaced=0 / bluray_compat=0 / constrained_intra=0 / bframes=11 / b_pyramid=2 / b_adapt=2 / b_bias=0 / direct=1 / weightb=1 / open_gop=0 / weightp=2 / keyint=250 / keyint_min=23 / scenecut=40 / intra_refresh=0 / rc=crf / mbtree=0 / crf=20.0 / qcomp=0.80 / qpmin=0 / qpmax=69 / qpstep=4 / ip_ratio=1.40 / pb_ratio=1.30 / aq=1:1.00
Default : Да
Forced : Нет
Цветовой диапазон : Limited
Основные цвета : BT.709
Характеристики трансфера : BT.709
Коэффициенты матрицы : BT.709
Аудио #1
Идентификатор : 2
Формат : AC-3
Формат/Информация : Audio Coding 3
Расширение режима : CM (complete main)
Параметр Endianness формата : Big
Идентификатор кодека : A_AC3
Продолжительность : 1 ч. 44 м.
Вид битрейта : Постоянный
Битрейт : 128 Кбит/сек
Каналы : 1 канал
Расположение каналов : Front: C
Частота : 48,0 КГц
Метод сжатия : С потерями
Размер потока : 95,5 Мбайт (2%)
Заголовок : MVO - Paramount
Язык : Russian
Default : Да
Forced : Нет
Аудио #2
Идентификатор : 3
Формат : AC-3
Формат/Информация : Audio Coding 3
Расширение режима : CM (complete main)
Параметр Endianness формата : Big
Идентификатор кодека : A_AC3
Продолжительность : 1 ч. 44 м.
Вид битрейта : Постоянный
Битрейт : 192 Кбит/сек
Каналы : 2 канала
Расположение каналов : Front: L R
Частота : 48,0 КГц
Метод сжатия : С потерями
Размер потока : 143 Мбайт (3%)
Заголовок : VO - Антон Алексеев
Язык : Russian
Default : Нет
Forced : Нет
Аудио #3
Идентификатор : 4
Формат : FLAC
Формат/Информация : Free Lossless Audio Codec
Идентификатор кодека : A_FLAC
Продолжительность : 1 ч. 44 м.
Вид битрейта : Переменный
Каналы : 1 канал
Частота : 48,0 КГц
Битовая глубина : 16 бит
Заголовок : original
Библиотека кодирования : Lavf53.19.0
Язык : English
Default : Нет
Forced : Нет
Скриншоты сравнение
[url=http://***/forum/viewtopic.php?t=4140334]http://***/forum/viewtopic.php?t=4140334[/url]
http://screenshotcomparison.com/comparison/142906
Скачать

Скачать торрент!

Как скачивать? · Что такое торрент? · Рейтинг и ограничения

Сайт не распространяет и не хранит электронные версии произведений, а лишь предоставляет доступ к создаваемому пользователями каталогу ссылок на торрент-файлы, которые содержат только списки хеш-сумм

[Профиль] [ЛС]
Показать сообщения:    
Ответить на тему

Текущее время: Сегодня 05:07

Часовой пояс: GMT + 4



Вы не можете начинать темы
Вы не можете отвечать на сообщения
Вы не можете редактировать свои сообщения
Вы не можете удалять свои сообщения
Вы не можете голосовать в опросах
Вы не можете прикреплять файлы к сообщениям
Вы не можете скачивать файлы