Кровососущие подонки / Bloodsucking Bastards (Брайан Джеймс О’Коннелл / Brian James O\'Connell) [2015, США, ужасы, комедия, HDTVRip] Sub Rus + Original eng

Ответить на тему
 
Автор Сообщение

user ®

Стаж: 7 лет 7 месяцев

Сообщений: 20008

Пост Пост: #1 от 16-Сен-2015 13:21

[Цитировать]

Кровососущие подонки / Bloodsucking Bastards
Страна: США
Жанр: ужасы, комедия
Год выпуска: 2015
Продолжительность: 01:24:03
Перевод: Субтитры
Cубтитры: русские
Оригинальная аудиодорожка: английский
Режиссер: Брайан Джеймс О’Коннелл / Brian James O'Connell
В ролях: Фрэн Кранц, Педро Паскаль, Джои Керн, Джоэль Мюррей, Эмма Фитцпатрик, Ивет Йэтс, Джастин Уэр, Маршалл Такер, Дэвид Ф. Парк
Описание: Эван уже давно работает в офисе и ждет повышения. Однако его босс отдает эту должность старому врагу Эвана — Максу. Вскоре в офисе начинают происходить кровавые изменения, что приведет к неожиданному финалу.
Сэмпл: http://sendfile.su/1154243
Качество видео: HDTVRip
Формат видео: AVI
Видео: XviD, 720x320 (2.25:1), 23,976 fps, 1960 kbps
Аудио: AC-3, 48 kHz, 6 ch, 384 kbps
Формат субтитров: softsub (SRT)
MediaInfo
Формат : AVI
Формат/Информация : Audio Video Interleave
Размер файла : 1,38 Гбайт
Продолжительность : 1 ч. 24 м.
Общий поток : 2354 Кбит/сек
Библиотека кодирования : VirtualDub build 32593/release
Видео
Идентификатор : 0
Формат : MPEG-4 Visual
Профиль формата : Advanced Simple@L5
Параметр BVOP формата : 2
Параметр QPel формата : Нет
Параметр GMC формата : Без точки перехода
Параметр матрицы формата : Default (H.263)
Режим смешивания : Сжатый битовый поток
Идентификатор кодека : XVID
Идентификатор кодека/Подсказка : XviD
Продолжительность : 1 ч. 24 м.
Битрейт : 1960 Кбит/сек
Ширина : 720 пикселей
Высота : 320 пикселей
Соотношение сторон : 2,25:1
Частота кадров : 23,976 кадра/сек
Цветовое пространство : YUV
Субдискретизация насыщенности : 4:2:0
Битовая глубина : 8 бит
Тип развёртки : Прогрессивная
Метод сжатия : С потерями
Бит/(Пиксели*Кадры) : 0.355
Размер потока : 1,15 Гбайт (83%)
Библиотека кодирования : XviD 66
Аудио
Идентификатор : 1
Формат : AC-3
Формат/Информация : Audio Coding 3
Расширение режима : CM (complete main)
Параметр Endianness формата : Big
Идентификатор кодека : 2000
Продолжительность : 1 ч. 24 м.
Вид битрейта : Постоянный
Битрейт : 384 Кбит/сек
Каналы : 6 каналов
Расположение каналов : Front: L C R, Side: L R, LFE
Частота : 48,0 КГц
Битовая глубина : 16 бит
Метод сжатия : С потерями
Размер потока : 231 Мбайт (16%)
Выравнивание : Соединение по промежуткам
Продолжительность промежутка : 42 мс. (1,00 видеокадр)
Время предзагрузки промежутка : 512 мс.
Субтитры
85
00:07:04,358 --> 00:07:05,824
- Эй, Майк.
- Отвали!
86
00:07:05,826 --> 00:07:08,360
Здорово. Рановато для таких выражений,
87
00:07:08,362 --> 00:07:10,629
но и завтра меня устраивает, дружище.
88
00:07:10,631 --> 00:07:13,331
- Ладно, хорошо, увидимся.
- Увидимся, Дэйв.
89
00:07:13,333 --> 00:07:15,000
Молодцы, парни.
90
00:07:15,002 --> 00:07:17,035
Никто не обращает внимания на Дэйва,
он должен прекратить эти викторины.
91
00:07:17,037 --> 00:07:20,906
Нет. Это единственный способ, чтобы кто-нибудь
общался с этим парнем.
92
00:07:20,908 --> 00:07:22,541
Тим,
93
00:07:22,543 --> 00:07:25,343
Я думал, ты работаешь над презентацией "Фалласайт".
94
00:07:25,345 --> 00:07:27,279
Что за "Фалласайт"?
95
00:07:27,281 --> 00:07:30,415
Вы шутите? Вы, ребята, вообще работали сегодня?
96
00:07:30,417 --> 00:07:31,817
Нет.
97
00:07:32,985 --> 00:07:34,085
Привет, мальчики.
98
00:07:34,087 --> 00:07:35,520
Эй!
99
00:07:35,522 --> 00:07:39,257
Черт! Для начальника отдела кадров,
ты выглядишь чертовски сексуально.
100
00:07:39,259 --> 00:07:41,226
Ты очень добр, да, очень.
101
00:07:41,228 --> 00:07:44,896
- Мэнди, пожалуйста, мы можем поговорить?
- Не называй меня Мэнди.
102
00:07:47,901 --> 00:07:50,001
Эндрю, как прошли выходные?
103
00:07:50,003 --> 00:07:53,004
Хм, хорошо.
Я трахнул мою соседку.
104
00:07:53,006 --> 00:07:54,506
Наконец-то. Так держать!
105
00:07:54,508 --> 00:07:56,374
Ты говоришь про горячую украинскую девчонку?
106
00:07:56,376 --> 00:07:57,742
На самом деле - ее маму.
Скриншот c названием фильма Скриншоты
Скачать

Скачать торрент!

Как скачивать? · Что такое торрент? · Рейтинг и ограничения

Сайт не распространяет и не хранит электронные версии произведений, а лишь предоставляет доступ к создаваемому пользователями каталогу ссылок на торрент-файлы, которые содержат только списки хеш-сумм

[Профиль] [ЛС]
Показать сообщения:    
Ответить на тему

Текущее время: Сегодня 22:30

Часовой пояс: GMT + 4



Вы не можете начинать темы
Вы не можете отвечать на сообщения
Вы не можете редактировать свои сообщения
Вы не можете удалять свои сообщения
Вы не можете голосовать в опросах
Вы не можете прикреплять файлы к сообщениям
Вы не можете скачивать файлы