Всё о моей родне / The Thing About My Folks (Рэймонд Де Фелитта / Raymond De Felitta) [2005, США, комедия, драма, WEB-DL 720p] MVO + Sub Eng + Original Eng

Ответить на тему
 
Автор Сообщение

user ®

Стаж: 7 лет 7 месяцев

Сообщений: 20008

Пост Пост: #1 от 16-Сен-2015 01:00

[Цитировать]

Всё о моей родне / The Thing About My Folks
Страна: США
Студия: Picturehouse, Nuance Productions, Outlaw Productions
Жанр: комедия, драма
Год выпуска: 2005
Продолжительность: 01:37:36
Перевод: Профессиональный (многоголосый закадровый)
Cубтитры: английские
Оригинальная аудиодорожка: английский
Режиссер: Рэймонд Де Фелитта / Raymond De Felitta
В ролях: Питер Фальк, Пол Райзер, Олимпия Дукакис, Элизабет Перкинс, МакКензи Коннолли, Лидия Джордан, Энн Дауд, Клер Бекман, Мими Либер, Берни МакИнерни и др.
Описание: Описание:
Отец и сын путешествуют по Америке и пытаются разобраться в своих отношениях и отношениях в их семье. По дороге их ждет множество комичных происшествий, в которых они смогут лучше узнать друг друга. Этот веселый и немного грустный фильм о самых важных вещах в нашей жизни - любви, преданности и семейных ценностях.
II Сэмпл II IMDB II
Доп. информация:
За многоголоску спасибо makc365
Тип релиза: WEB-DL 720p
Контейнер: MKV
Видео: AVC / 1280x720 / 16:9 / 23.976fps / Bit rate 3835Kbps
Аудио 1: AC3 / 48.0 KHz / 6ch. / 384kbps / rus / mvo
Аудио 2: AC3 / 48.0 KHz / 6ch. / 384kbps / eng
Формат субтитров: softsub (SRT)
MediaInfo
Общее
Уникальный идентификатор : 234855885695784957708429995455329770337 (0xB0AF99296223406485E0370EF6A69B61)
Полное имя : G:\!!!_torrent\The.Thing.About.My.Folks.2005.WEB-DL.720p_by_vedigo.mkv
Формат : Matroska
Версия формата : Version 4 / Version 2
Размер файла : 3,20 Гбайт
Продолжительность : 1 ч. 37 м.
Общий поток : 4696 Кбит/сек
Название фильма : The.Thing.About.My.Folks.2005.WEB-DL.720p_by_vedigo
Дата кодирования : UTC 2015-09-14 08:23:44
Программа кодирования : mkvmerge v8.3.0 ('Over the Horizon') 64bit
Библиотека кодирования : libebml v1.3.1 + libmatroska v1.4.2
DURATION : 01:37:36.736000000
NUMBER_OF_FRAMES : 183023
NUMBER_OF_BYTES : 281123328
_STATISTICS_WRITING_APP : mkvmerge v8.3.0 ('Over the Horizon') 64bit
_STATISTICS_WRITING_DATE_UTC : 2015-09-14 08:23:44
_STATISTICS_TAGS : BPS DURATION NUMBER_OF_FRAMES NUMBER_OF_BYTES
Видео
Идентификатор : 1
Формат : AVC
Формат/Информация : Advanced Video Codec
Профиль формата : High@L3.1
Параметр CABAC формата : Нет
Параметр ReFrames формата : 2 кадра
Идентификатор кодека : V_MPEG4/ISO/AVC
Продолжительность : 1 ч. 37 м.
Битрейт : 3835 Кбит/сек
Ширина : 1280 пикселей
Высота : 720 пикселей
Соотношение сторон : 16:9
Режим частоты кадров : Постоянный
Частота кадров : 23,976 кадра/сек
Цветовое пространство : YUV
Субдискретизация насыщенности : 4:2:0
Битовая глубина : 8 бит
Тип развёртки : Прогрессивная
Бит/(Пиксели*Кадры) : 0.174
Размер потока : 2,61 Гбайт (82%)
Заголовок : The.Thing.About.My.Folks.2005.WEB-DL.720p_by_vedigo
Default : Да
Forced : Нет
Цветовой диапазон : Limited
Основные цвета : BT.709
Характеристики трансфера : BT.709
Коэффициенты матрицы : BT.709
Аудио #1
Идентификатор : 2
Формат : AC-3
Формат/Информация : Audio Coding 3
Расширение режима : CM (complete main)
Параметр Endianness формата : Big
Идентификатор кодека : A_AC3
Продолжительность : 1 ч. 37 м.
Вид битрейта : Постоянный
Битрейт : 384 Кбит/сек
Каналы : 6 каналов
Расположение каналов : Front: L C R, Side: L R, LFE
Частота : 48,0 КГц
Метод сжатия : С потерями
Размер потока : 268 Мбайт (8%)
Заголовок : MVO
Язык : Russian
Default : Да
Forced : Нет
Аудио #2
Идентификатор : 3
Формат : AC-3
Формат/Информация : Audio Coding 3
Расширение режима : CM (complete main)
Параметр Endianness формата : Big
Идентификатор кодека : A_AC3
Продолжительность : 1 ч. 37 м.
Вид битрейта : Постоянный
Битрейт : 384 Кбит/сек
Каналы : 6 каналов
Расположение каналов : Front: L C R, Side: L R, LFE
Частота : 48,0 КГц
Метод сжатия : С потерями
Размер потока : 268 Мбайт (8%)
Заголовок : original
Язык : English
Default : Нет
Forced : Нет
Текст
Идентификатор : 4
Формат : UTF-8
Идентификатор кодека : S_TEXT/UTF8
Идентификатор кодека/Информация : UTF-8 Plain Text
Заголовок : subtitle eng
Язык : English
Default : Нет
Forced : Нет
Меню
00:00:00.000 : en:Chapter 1
00:00:10.000 : en:Chapter 2
00:05:53.000 : en:Chapter 3
00:11:26.000 : en:Chapter 4
00:17:21.000 : en:Chapter 5
00:26:08.000 : en:Chapter 6
00:30:42.000 : en:Chapter 7
00:38:10.000 : en:Chapter 8
00:41:54.000 : en:Chapter 9
00:48:31.000 : en:Chapter 10
00:53:50.000 : en:Chapter 11
01:00:04.000 : en:Chapter 12
01:05:18.000 : en:Chapter 13
01:11:46.000 : en:Chapter 14
01:18:31.000 : en:Chapter 15
01:24:52.000 : en:Chapter 16
Скриншоты
Скачать

Скачать торрент!

Как скачивать? · Что такое торрент? · Рейтинг и ограничения

Сайт не распространяет и не хранит электронные версии произведений, а лишь предоставляет доступ к создаваемому пользователями каталогу ссылок на торрент-файлы, которые содержат только списки хеш-сумм

[Профиль] [ЛС]
Показать сообщения:    
Ответить на тему

Текущее время: Сегодня 15:55

Часовой пояс: GMT + 4



Вы не можете начинать темы
Вы не можете отвечать на сообщения
Вы не можете редактировать свои сообщения
Вы не можете удалять свои сообщения
Вы не можете голосовать в опросах
Вы не можете прикреплять файлы к сообщениям
Вы не можете скачивать файлы