Приключения белого медвежонка / Маленький полярный медвежонок / The Little Polar Bear / Der kleine Eisbär (Тило Роткирх / Thilo Rothkirch, Пьет де Рикер / Piet De Rycker) [2001, мультфильм, приключения, семейный, VHSRip] MVO

Ответить на тему
 
Автор Сообщение

user ®

Стаж: 13 лет

Сообщений: 15041

Пост Пост: #1 от 15-Сен-2015 21:54

[Цитировать]

Приключения белого медвежонка / Маленький полярный медвежонок / The Little Polar Bear / Der kleine Eisbär
Страна: Германия, США, Швейцария
Жанр: мультфильм, приключения, семейный
Продолжительность: 01:14:08
Год выпуска: 2001
Перевод: Профессиональный (многоголосый закадровый) Премьер
Русские субтитры: нет
Режиссёр: Тило Роткирх / Thilo Rothkirch, Пьет де Рикер / Piet De Rycker
Роли озвучивали: Melora Harte, Anke Engelke, Wesley Singerman, Joe Ochman, Rebecca Forstadt, Ralph Votrian, Edie Mirman, Edie Mirman, Michael McConnohie, Steve Kramer, Richard Cansino, Steve Bulen, Jochen Busse, Mari Devon, Daran Norris, Joshua Seth, Kimberly J. Brown, Dirk Bach, Brianne Siddall, Robert Axelrod
Описание: Друзья бывают всех размеров!
Картина поставлена по знаменитой серии книг-бестселлеров!
История о дружбе смешных зверушек на северном полюсе!
Ведь дружить можно со всеми, даже с тюленями!
Очаровательный полнометражный мультфильм для всей семьи, поставленный по знаменитой серии книг-бестселлеров! Герой этой замечательной анимационной картины, белый медвежонок по имени Ларс, живет на северном полюсе среди бесконечного льда и снегов. Полярный закон гласит: каждый держится своей стаи и общается только с сородичами. Но вот Ларс встречает компанейского весельчака Робби, с которым можно прекрасно провести время. Есть лишь одна проблема: Робби - тюлень, а, как известно, медведям с тюленями дружить не положено. И тогда Ларс и Робби решают, что они больше не будут соблюдать строгие полярные законы и станут друзьями несмотря ни на что! Их дружба полностью изменила отношения между тюленями и медведями, которые теперь стали отлично ладить друг с другом. Но возникает новая напасть: в окрестностях появляется громадный, прожорливый, металлический "монстр", поедающий всю рыбу. Чем будут питаться местные жители? Чтобы спасти свою семью и друзей, малыш Ларс отправляется в далекое путешествие, где его ждут потрясающие приключения и новые друзья!
Доп. информация: Оцифровка лицензионной VHS (личный архив) и получение VHSRip alenavova
Эксклюзив для ***. При размещении данного релиза на других сайтах ссылка на автора alenavova обязательна.

Релиз
Качество: VHSRip
Формат: AVI
Видео: 704x528 (1.33:1), 25 fps, XviD build 50 ~1901 kbps avg, 0.20 bit/pixel
Аудио: 48 kHz, AC3 Dolby Digital, 2/0 (L,R) ch, ~192 kbps
Субтитры: отсутствуют
Подробные технические данные
Приключения белого медвежонка - The Little Polar Bear (by alenavova).aviFormat : AVIFormat/Info : Audio Video InterleaveFile size : 1.09 GiBDuration : 1h 14mnOverall bit rate : 2 103 KbpsMovie name : Приключения белого медвежонка - The Little Polar Bear (by alenavova)Director : by alenavovaWriting application : VirtualDubMod 1.5.10.3 | www.virtualdub-fr.org || (build 2550/release)Copyright : Edich2Comment : ***
VideoID : 0Format : MPEG-4 VisualFormat profile : Advanced Simple@L5Format settings, BVOP : 1Format settings, QPel : NoFormat settings, GMC : No warppointsFormat settings, Matrix : Default (MPEG)Codec ID : XVIDCodec ID/Hint : XviDDuration : 1h 14mnBit rate : 1 902 KbpsWidth : 704 pixelsHeight : 528 pixelsDisplay aspect ratio : 4:3Frame rate : 25.000 fpsColor space : YUVChroma subsampling : 4:2:0Bit depth : 8 bitsScan type : ProgressiveCompression mode : LossyBits/(Pixel*Frame) : 0.205Stream size : 1 009 MiB (90%)Writing library : XviD 1.2.1 (UTC 2008-12-04)
AudioID : 1Format : AC-3Format/Info : Audio Coding 3Mode extension : CM (complete main)Format settings, Endianness : BigCodec ID : 2000Duration : 1h 14mnBit rate mode : ConstantBit rate : 192 KbpsChannel(s) : 2 channelsChannel positions : Front: L RSampling rate : 48.0 KHzBit depth : 16 bitsCompression mode : LossyStream size : 102 MiB (9%)Alignment : Split accross interleavesInterleave, duration : 40 ms (1.00 video frame)Interleave, preload duration : 500 ms
Скриншоты
Скачать

Скачать торрент! Приключения белого медвежонка / Маленький полярный медвежонок / The Little Polar Bear / Der kleine Eisbär (Тило Роткирх / Thilo Rothkirch, Пьет де Рикер / Piet De Rycker) [2001, мультфильм, приключения, семейный, VHSRip] MVO

Как скачивать? · Что такое торрент? · Рейтинг и ограничения

Сайт не распространяет и не хранит электронные версии произведений, а лишь предоставляет доступ к создаваемому пользователями каталогу ссылок на торрент-файлы, которые содержат только списки хеш-сумм

[Профиль] [ЛС]
Показать сообщения:    
Ответить на тему

Текущее время: Сегодня 11:41

Часовой пояс: GMT + 4



Вы не можете начинать темы
Вы не можете отвечать на сообщения
Вы не можете редактировать свои сообщения
Вы не можете удалять свои сообщения
Вы не можете голосовать в опросах
Вы не можете прикреплять файлы к сообщениям
Вы не можете скачивать файлы