Любимый и опасный / Sevimli Tehlikeli (Озджан Дениз / Özcan Deniz) [2015, Турция, Мелодрама, драма, комедия, WEBRip] DVO (Раим Закиров, Ирина Котова)

Ответить на тему
 
Автор Сообщение

user ®

Стаж: 7 лет 7 месяцев

Сообщений: 20008

Пост Пост: #1 от 15-Сен-2015 12:33

[Цитировать]

Любимый и опасный / Sevimli Tehlikeli
Страна: Турция, "Avşar film", "DNZ film"
Жанр: Мелодрама, драма, комедия
Год выпуска: 2015
Продолжительность: 01:48:55
Перевод: Любительский (двухголосый закадровый) Раим Закиров, Ирина Котова
Cубтитры: нет
Оригинальная аудиодорожка: Турецкая

Режиссер: Озджан Дениз / Özcan Deniz
В ролях: Шюкрю Озйылдыз, Айча Айшин Туран, Тюркан Кылыч, Танер Туран, Джем Авнайим, Ахмет Озаслан, Бурчин Бирбен, Эврим Доган, Эфе Депрем, Зейнеп Аныл
Описание: Зелиш - красивая молодая девушка. Она живет в богатстве и достатке вместе с отцом, которого считает родным, и который не уделяет ей должного внимания. Эта девушка в грудном возрасте была похищена из бедной семьи. Господин Хаккы в целях получения огромного состояния в 200 млн. долларов, которое оставляет умирающая его жена, еще не родившемуся ребенку по завещанию, таким образом, он берет грех на душу, похищая чужого ребёнка. Зелиш выросла мечтательницей, она с детства ждала своего принца на белом коне, который бы спас её из такой скучной и однообразной жизни. И однажды она встречает его... Зарок - и есть тот принц, на самом деле не ладящий с белым конем. Да и принц из него никакой, Зарок - обыкновенный мелкий воришка. Этот парень много лет назад совершил непоправимую ошибку, а груз вины он носит на своих плечах до сих пор. Желая исправить содеянное и облегчить чувство вины, он решается на авантюру, в которую вовлекает и Зелиш. Именно эта девушка связана с его темным прошлым, и именно Зелиш станет лучом солнца в его будущем.
Доп. информация: Релиз - shachter58, Озвучивание: Раим Закиров, Ирина Котова по переводу Инессы Маликовой для Киры. (Группа в ВКонтакте: "kyg_club")

Сэмпл: http://multi-up.com/1066461
Качество видео: WEBRip
Формат видео: AVI
Видео: MPEG-4 Visual, XviD, 720x304 (2.35:1), 1 326 Kbps, 25.000 fps, Bits/(Pixel*Frame): 0.242
Аудио: Audio Coding 3, АС-3, 2 ch, 48.0 KHz, 192 Kbps - Русский
Аудио 2: MPEG Audio, MP3, 2 ch, 44.1 KHz, 192 Kbps - Турецкий
MediaInfo
General
Complete name : I:\КИНО ТУРЦИИ\ГОТОВЫЕ РАЗДАЧИ ФИЛЬМОВ\Lubimiy.i.opasniy.2015.Russ.L2.WEBRip.avi
Format : AVI
Format/Info : Audio Video Interleave
File size : 1.31 GiB
Duration : 1h 48mn
Overall bit rate : 1 724 Kbps
Video
ID : 0
Format : MPEG-4 Visual
Format profile : Advanced Simple@L5
Format settings, BVOP : Yes
Format settings, QPel : No
Format settings, GMC : No warppoints
Format settings, Matrix : Default (H.263)
Codec ID : XVID
Codec ID/Hint : XviD
Duration : 1h 48mn
Bit rate : 1 326 Kbps
Width : 720 pixels
Height : 304 pixels
Display aspect ratio : 2.35:1
Frame rate : 25.000 fps
Color space : YUV
Chroma subsampling : 4:2:0
Bit depth : 8 bits
Scan type : Progressive
Compression mode : Lossy
Bits/(Pixel*Frame) : 0.242
Stream size : 1.01 GiB (77%)
Writing library : XviD 1.0.1 (UTC 2004-06-05)
Audio #1
ID : 1
Format : AC-3
Format/Info : Audio Coding 3
Mode extension : CM (complete main)
Format settings, Endianness : Big
Codec ID : 2000
Duration : 1h 48mn
Bit rate mode : Constant
Bit rate : 192 Kbps
Channel(s) : 2 channels
Channel positions : Front: L R
Sampling rate : 48.0 KHz
Bit depth : 16 bits
Compression mode : Lossy
Stream size : 150 MiB (11%)
Alignment : Split accross interleaves
Interleave, duration : 40 ms (1.00 video frame)
Interleave, preload duration : 500 ms
Audio #2
ID : 2
Format : MPEG Audio
Format version : Version 1
Format profile : Layer 3
Mode : Joint stereo
Codec ID : 55
Codec ID/Hint : MP3
Duration : 1h 48mn
Bit rate mode : Constant
Bit rate : 192 Kbps
Channel(s) : 2 channels
Sampling rate : 44.1 KHz
Compression mode : Lossy
Stream size : 150 MiB (11%)
Alignment : Split accross interleaves
Interleave, duration : 40 ms (1.00 video frame)
Interleave, preload duration : 500 ms
Writing library : LAME3.99.5
Скриншот c названием фильма Скриншоты
Скачать

Скачать торрент!

Как скачивать? · Что такое торрент? · Рейтинг и ограничения

Сайт не распространяет и не хранит электронные версии произведений, а лишь предоставляет доступ к создаваемому пользователями каталогу ссылок на торрент-файлы, которые содержат только списки хеш-сумм

[Профиль] [ЛС]
Показать сообщения:    
Ответить на тему

Текущее время: Сегодня 15:31

Часовой пояс: GMT + 4



Вы не можете начинать темы
Вы не можете отвечать на сообщения
Вы не можете редактировать свои сообщения
Вы не можете удалять свои сообщения
Вы не можете голосовать в опросах
Вы не можете прикреплять файлы к сообщениям
Вы не можете скачивать файлы