Чёрное лето Японии: Ложное обвинение / Darkness in the Light / Nippon no kuroi natsu - Enzai (Кэй Кумаи / Kei Kumai) [2001, Япония, драма, DVDRip] + Sub Rus Eng

Ответить на тему
 
Автор Сообщение

user ®

Стаж: 13 лет

Сообщений: 15071

Пост Пост: #1 от 15-Сен-2015 06:21

[Цитировать]

Чёрное лето Японии: Ложное обвинение / Darkness in the Light / Nippon no kuroi natsu - Enzai / 日本の黒い夏
Страна: Япония
Жанр: драма
Год выпуска: 2001
Продолжительность: 01:58:58
Перевод 1: Субтитры русские - [url=http://***/forum/tracker.php?rid=6473541]дед_сто_лет[/url]©
Перевод 2: Субтитры английские
Оригинальная аудиодорожка: японский
Режиссер: [url=http://***/forum/tracker.php?nm=Kei%20Kumai]Кэй Кумаи / Kei Kumai[/url]
В ролях: Киити НАКАИ, Наоми ХОСОКАВА, Нагико ТОНО, Юкия КИТАМУРА, Такаюки КАТО, Сюндзи ФУДЗИМУРА, Тайясу УМЭНО, Мицуру ХИРАТА, Канэко ИВАСАКИ, Тэруми НИКИ, Кии МЭГИСИ, Рэндзи ИСИБАСИ, Кадзуо КИТАМУРА, Акира ТЭРАО
Описание: "В полночь 27 июня 1994 года в Мацумото произошли первые случаи смертельного отравления зарином. Этот день навсегда стал печальной датой в истории Японии. Первым о случившемся в полицию сообщил служащий Тосио Камбэ. Несколько часов спустя полиция предъявила ему обвинение в убийстве" - так начинается фильм о борьбе за справедливость. Человек бессилен перед средствами массовой информации, которые в одночасье делают его мерзавцем и преступником. Вернуть себе честное имя потом совсем не просто. Занимаясь переводом, я постоянно вспоминал, как в 90 годы в Москве сам дважды встречался с представителями организации Аум-Синрикё, не подозревая, чем всё это закончится.©
По духу эта лента близка фильмам:
[url=http://***/forum/viewtopic.php?t=4700897]Мой сын убит! / Oh, My Son! / Shodo satsujin: Musuko yo / 衝動殺人・息子よ - 1979[/url]
[url=http://***/forum/viewtopic.php?t=4689582]Мой путь / My Way / Waga Michi / わが道 - 1974[/url]
> > > > > > >
Качество видео: DVDRip
Формат видео: AVI
Видео: 720x432 (1.67:1), 23.976 fps, XviD build 50 ~1520 kbps avg, 0.20 bit/pixel
Аудио: 48 kHz, MPEG Layer 3, 2 ch, ~192.00 kbps avg
Пример субтитров
660
00:55:52,816 --> 00:55:55,057
"Вы все убийцы"
661
00:55:57,120 --> 00:56:01,569
"Признайся скорее, чтобы тебя арестовали"
662
00:56:02,426 --> 00:56:04,872
"Проваливай отсюда"
663
00:56:06,096 --> 00:56:08,098
Отец...
664
00:56:11,835 --> 00:56:15,282
Эй, хватит. Прекрати упорствовать!.
665
00:56:30,254 --> 00:56:31,790
Отец...
666
00:56:34,158 --> 00:56:37,222
... может, нам поменять номер телефона?
667
00:56:40,364 --> 00:56:45,336
Я не сделал ничего плохого.
668
00:56:46,570 --> 00:56:49,414
Мне незачем скрываться.
669
00:56:54,011 --> 00:56:59,927
Если в школе вам скажут
что-то плохое обо мне...
670
00:57:00,417 --> 00:57:03,523
... знайте, что они ошибаются.
671
00:57:05,155 --> 00:57:09,934
Вы должны понимать,
что они ничего не знают.
672
00:57:10,160 --> 00:57:11,537
Хорошо.
673
00:57:30,247 --> 00:57:34,127
Что бы ни произошло...
674
00:57:35,385 --> 00:57:39,162
... мы должны вести себя, как обычно.
675
00:57:39,890 --> 00:57:41,198
Хорошо.
676
00:57:43,060 --> 00:57:48,510
Отец не сделал ничего плохого.
677
00:57:49,900 --> 00:57:54,747
Несите свою жизнь с достоинством
и уверенностью.
678
00:57:54,938 --> 00:57:55,939
Хорошо.
679
00:58:17,227 --> 00:58:19,400
С того дня...
680
00:58:20,197 --> 00:58:23,440
... вся семья объединилась
в борьбе против лжи.
681
00:58:25,869 --> 00:58:31,547
Адвокат Нагата также делал все,
что мог, чтобы защитить нас.
MediaInfo
General
Complete name : C:\...\Darkness.in.the.Light(2001)Kumai\Nippon.no.kuroi.natsu(2001)Kei.Kumai.avi
Format : AVI
Format/Info : Audio Video Interleave
File size : 1.43 GiB
Duration : 1h 58mn
Overall bit rate : 1 722 Kbps
Writing application : VirtualDubMod 1.5.4.1 (build 2178/release)
Writing library : VirtualDub-MPEG2 build 24600/release
Video
ID : 0
Format : MPEG-4 Visual
Format profile : Advanced Simple@L5
Format settings, BVOP : No
Format settings, QPel : No
Format settings, GMC : No warppoints
Format settings, Matrix : Custom
Codec ID : XVID
Codec ID/Hint : XviD
Duration : 1h 58mn
Bit rate : 1 521 Kbps
Width : 720 pixels
Height : 432 pixels
Display aspect ratio : 1.667
Frame rate : 23.976 fps
Color space : YUV
Chroma subsampling : 4:2:0
Bit depth : 8 bits
Scan type : Progressive
Compression mode : Lossy
Bits/(Pixel*Frame) : 0.204
Stream size : 1.26 GiB (88%)
Writing library : XviD 1.2.1 (UTC 2008-12-04)
Audio
ID : 1
Format : MPEG Audio
Format version : Version 1
Format profile : Layer 3
Mode : Joint stereo
Codec ID : 55
Codec ID/Hint : MP3
Duration : 1h 58mn
Bit rate mode : Constant
Bit rate : 192 Kbps
Channel(s) : 2 channels
Sampling rate : 48.0 KHz
Compression mode : Lossy
Stream size : 163 MiB (11%)
Alignment : Aligned on interleaves
Interleave, duration : 42 ms (1.00 video frame)
Interleave, preload duration : 504 ms
Writing library : LAME3.98r
Encoding settings : -m j -V 4 -q 2 -lowpass 18.6 -b 192
Скриншот c названием фильма Скриншоты
Скачать

Скачать торрент! Чёрное лето Японии: Ложное обвинение / Darkness in the Light / Nippon no kuroi natsu - Enzai (Кэй Кумаи / Kei Kumai) [2001, Япония, драма, DVDRip] + Sub Rus Eng

Как скачивать? · Что такое торрент? · Рейтинг и ограничения

Сайт не распространяет и не хранит электронные версии произведений, а лишь предоставляет доступ к создаваемому пользователями каталогу ссылок на торрент-файлы, которые содержат только списки хеш-сумм

[Профиль] [ЛС]
Показать сообщения:    
Ответить на тему

Текущее время: Сегодня 10:55

Часовой пояс: GMT + 4



Вы не можете начинать темы
Вы не можете отвечать на сообщения
Вы не можете редактировать свои сообщения
Вы не можете удалять свои сообщения
Вы не можете голосовать в опросах
Вы не можете прикреплять файлы к сообщениям
Вы не можете скачивать файлы