Однажды на старом мосту / Once Upon a Time In The Old Bridge (Чжан Ли / Zhang Li) [2014, Китай, Исторический, WEB-DLRip-AVC] DVO (Izanami & Elrid) + Sub Eng

Ответить на тему
 
Автор Сообщение

user ®

Стаж: 13 лет

Сообщений: 15071

Пост Пост: #1 от 14-Сен-2015 21:06

[Цитировать]

Однажды на старом мосту / Once Upon a Time In The Old Bridge
Страна: Китай
Жанр: Исторический
Год выпуска: 2014
Продолжительность: 01:42:16
Перевод: Любительский (двухголосый закадровый) Izanami & Elrid по переводу sergik1
Cубтитры: английские, китайские
Режиссер: Чжан Ли / Zhang Li
В ролях: Хаомин Юй, Хуаншань Сюй, Кён Ан-джин и другие
Описание: Империи Сун. Когда-то город Чаоян был разделён рекой на два берега. Жители двух берегов, бывшие друг для друга, словно братья и сёстры, начинают враждовать из-за накопленных обид и недоразумений. Со временем, отношения между ними накаляются до предела. Известный буддийский монах не может больше смотреть, как люди убивают друг друга, поэтому он начинает собирать пожертвования, чтобы построить каменный мост между двух берегов. Однако, стали распространяться слухи о том, что старый монах решил присвоить все деньги себе. В город из столицы направляют молодого инспектора, чтобы тот разобрался, где правда, а где ложь. Он старается не поддаваться влиянию слухов, и, в то же время, глубоко впечатляется добродетельностью монаха. Однако кто знает, что скрыто за таинственными музыкальными знаками, подозрительным поведением мужчины из Корё, легендой о драгоценном зеркале, а также, чем может обернуться надвигающийся заговор...
Доп.информация: Фильм переведён и озвучен по заказу Guilty Fooler
Сэмпл: http://multi-up.com/1066421
Качество видео: WEB-DLRip-AVC
Формат видео: MKV
Видео: AVC, 848x352, 1300 kbps, 25 fps
Аудио: MP3, 192 kbps, 48 kHZ, 2 ch
Формат субтитров: hardsub (неотключаемые)
MediaInfo
Format: Matroska
Format version: Version 4 / Version 2
File size: 1.09 GiB
Duration: 1h 42mn
Overall bit rate: 1 521 Kbps
Encoded date: UTC 2015-09-14 08:16:09
Writing application: mkvmerge v7.7.0 ('Six Voices') 64bit built on Feb 28 2015 23:39:33
Writing library: libebml v1.3.1 + libmatroska v1.4.2
DURATION: 01:42:16.968000000
NUMBER_OF_FRAMES: 255707
NUMBER_OF_BYTES: 147287232
_STATISTICS_WRITING_APP: mkvmerge v7.7.0 ('Six Voices') 64bit built on Feb 28 2015 23:39:33
_STATISTICS_WRITING_DATE_UTC: 2015-09-14 08:16:09
_STATISTICS_TAGS: BPS DURATION NUMBER_OF_FRAMES NUMBER_OF_BYTES
Format: AVC
Format/Info: Advanced Video Codec
Format profile: High@L3.1
Format settings, CABAC: Yes
Format settings, ReFrames: 4 frames
Codec ID: V_MPEG4/ISO/AVC
Duration: 1h 42mn
Bit rate: 1 300 Kbps
Width: 848 pixels
Height: 352 pixels
Display aspect ratio: 2.40:1
Frame rate mode: Constant
Frame rate: 25.000 fps
Color space: YUV
Chroma subsampling: 4:2:0
Bit depth: 8 bits
Scan type: Progressive
Bits/(Pixel*Frame): 0.174
Stream size: 950 MiB (85%)
Writing library: x264 core 116 r2074 2641b9e
Encoding settings: cabac=1 / ref=3 / deblock=1:-2:-2 / analyse=0x3:0x113 / me=hex / subme=7 / psy=1 / psy_rd=1.00:0.00 / mixed_ref=1 / me_range=16 / chroma_me=1 / trellis=1 / 8x8dct=1 / cqm=0 / deadzone=21,11 / fast_pskip=1 / chroma_qp_offset=-2 / threads=6 / sliced_threads=0 / nr=0 / decimate=0 / interlaced=0 / bluray_compat=0 / constrained_intra=0 / bframes=3 / b_pyramid=2 / b_adapt=1 / b_bias=0 / direct=1 / weightb=1 / open_gop=0 / weightp=2 / keyint=250 / keyint_min=25 / scenecut=40 / intra_refresh=0 / rc_lookahead=40 / rc=abr / mbtree=1 / bitrate=1300 / ratetol=1.0 / qcomp=0.60 / qpmin=0 / qpmax=69 / qpstep=4 / ip_ratio=1.40 / aq=1:1.00
Language: English
Default: Yes
Forced: No
DURATION: 01:42:16.760000000
NUMBER_OF_FRAMES: 153419
NUMBER_OF_BYTES: 1018396287
_STATISTICS_WRITING_APP: mkvmerge v7.7.0 ('Six Voices') 64bit built on Feb 28 2015 23:39:33
_STATISTICS_WRITING_DATE_UTC: 2015-09-14 08:16:09
_STATISTICS_TAGS: BPS DURATION NUMBER_OF_FRAMES NUMBER_OF_BYTES
Format: MPEG Audio
Format version: Version 1
Format profile: Layer 3
Mode: Joint stereo
Mode extension: MS Stereo
Codec ID: A_MPEG/L3
Codec ID/Hint: MP3
Duration: 1h 42mn
Bit rate mode: Constant
Bit rate: 192 Kbps
Channel(s): 2 channels
Sampling rate: 48.0 KHz
Compression mode: Lossy
Stream size: 140 MiB (13%)
Default: Yes
Forced: No
Скриншот c названием фильма Скриншоты
Скачать

Скачать торрент! Однажды на старом мосту / Once Upon a Time In The Old Bridge (Чжан Ли / Zhang Li) [2014, Китай, Исторический, WEB-DLRip-AVC] DVO (Izanami & Elrid) + Sub Eng

Как скачивать? · Что такое торрент? · Рейтинг и ограничения

Сайт не распространяет и не хранит электронные версии произведений, а лишь предоставляет доступ к создаваемому пользователями каталогу ссылок на торрент-файлы, которые содержат только списки хеш-сумм

[Профиль] [ЛС]
Показать сообщения:    
Ответить на тему

Текущее время: Сегодня 21:24

Часовой пояс: GMT + 4



Вы не можете начинать темы
Вы не можете отвечать на сообщения
Вы не можете редактировать свои сообщения
Вы не можете удалять свои сообщения
Вы не можете голосовать в опросах
Вы не можете прикреплять файлы к сообщениям
Вы не можете скачивать файлы