В первый раз / Я поцеловал девушку / Toute premiere fois / I kissed a girl (Максим Говаре / Maxime Govare, Ноеми Саглио / Noemie Saglio) [2015, Франция, комедия, HDRip] DVO

Ответить на тему
 
Автор Сообщение

user ®

Стаж: 7 лет 7 месяцев

Сообщений: 20008

Пост Пост: #1 от 14-Сен-2015 21:06

[Цитировать]

В первый раз / Я поцеловал девушку / Toute premiere fois / I kissed a girl
Страна: Франция
Жанр: комедия
Год выпуска: 2015
Продолжительность: 01:31:29
Перевод: Любительский (двухголосый закадровый)
Cубтитры: нет
Режиссер: Максим Говаре, Ноеми Саглио / Maxime Govare, Noémie Saglio
В ролях: Пио Мармай, Франк Гастамбид, Adrianna Gradziel, Ланник Готри, Камилль Коттин, Фредерик Пьеро, Изабель Канделье, Николь Феррони, Etienne Guiraud, Себастьен Кастро
Описание: Жереми просыпается в постели с очаровательной блондинкой. Казалось бы, невозможная для него ситуация - ведь он гей и собирается замуж за своего давнего бойфренда. Но Адна не выходит у него из головы и вскоре Жереми понимает, что по уши влюбился в девушку. Теперь ему придётся бросить Антуана и признаваться родным и друзьям в нормальной ориентации, что в современном толерантном обществе будет воспринято неоднозначно.
Но настоящая любовь преодолеет всё.
Сэмпл: http://multi-up.com/1066262
Качество видео: HDRip
Формат видео: AVI
Видео: 640x272 (2.35:1), 24.000 fps, XviD build 73 ~999 kbps avg, 0.24 bit/pixel
Аудио: 48 kHz, MPEG Layer 3, 2 ch, ~128.00 kbps avg
MediaInfo
Формат : AVI
Формат/Информация : Audio Video Interleave
Размер файла : 744 Мбайт
Продолжительность : 1 ч. 31 м.
Общий поток : 1137 Кбит/сек
Программа кодирования : VirtualDubMod 1.5.10.3 | www.virtualdub-fr.org || (build 2550/release)
Библиотека кодирования : VirtualDubMod build 2550/release
Видео
Идентификатор : 0
Формат : MPEG-4 Visual
Профиль формата : Advanced Simple@L5
Параметр BVOP формата : 1
Параметр QPel формата : Нет
Параметр GMC формата : Без точки перехода
Параметр матрицы формата : Выборочная
Идентификатор кодека : XVID
Идентификатор кодека/Подсказка : XviD
Продолжительность : 1 ч. 31 м.
Битрейт : 999 Кбит/сек
Ширина : 640 пикселей
Высота : 272 пикселя
Соотношение сторон : 2,35:1
Частота кадров : 24,000 кадра/сек
Цветовое пространство : YUV
Субдискретизация насыщенности : 4:2:0
Битовая глубина : 8 бит
Тип развёртки : Прогрессивная
Метод сжатия : С потерями
Бит/(Пиксели*Кадры) : 0.239
Размер потока : 654 Мбайт (88%)
Библиотека кодирования : XviD 73
Аудио
Идентификатор : 1
Формат : MPEG Audio
Версия формата : Version 1
Профиль формата : Layer 3
Идентификатор кодека : 55
Идентификатор кодека/Подсказка : MP3
Продолжительность : 1 ч. 31 м.
Вид битрейта : Постоянный
Битрейт : 128 Кбит/сек
Каналы : 2 канала
Частота : 48,0 КГц
Метод сжатия : С потерями
Размер потока : 83,8 Мбайт (11%)
Выравнивание : Соединение по промежуткам
Продолжительность промежутка : 42 мс. (1,00 видеокадр)
Время предзагрузки промежутка : 504 мс.
Библиотека кодирования : LAME3.99r
Настройки программы : -m s -V 4 -q 2 -lowpass 17 -b 128
Скриншоты
Скачать

Скачать торрент!

Как скачивать? · Что такое торрент? · Рейтинг и ограничения

Сайт не распространяет и не хранит электронные версии произведений, а лишь предоставляет доступ к создаваемому пользователями каталогу ссылок на торрент-файлы, которые содержат только списки хеш-сумм

[Профиль] [ЛС]
Показать сообщения:    
Ответить на тему

Текущее время: Сегодня 20:35

Часовой пояс: GMT + 4



Вы не можете начинать темы
Вы не можете отвечать на сообщения
Вы не можете редактировать свои сообщения
Вы не можете удалять свои сообщения
Вы не можете голосовать в опросах
Вы не можете прикреплять файлы к сообщениям
Вы не можете скачивать файлы