Идеальный голос 2 / Pitch Perfect 2 (Элизабет Бэнкс / Elizabeth Banks) [2015, США, комедия, музыка, BDRip] Dub (CEE) + Original Eng + subs (Rus Forced, Rus, Eng, Eng SDH, Eng SDH Colored)

Ответить на тему
 
Автор Сообщение

user ®

Стаж: 7 лет 7 месяцев

Сообщений: 20008

Пост Пост: #1 от 14-Сен-2015 21:06

[Цитировать]

Идеальный голос 2 / Pitch Perfect 2- Год выпуска: 2015
Страна: США
Жанр: комедия, музыка
Продолжительность: 01:54:46
Перевод: Профессиональный (полное дублирование) CEE
+ Оригинальная звуковая дорожка
Субтитры: Русские (полные, форсированные), английские (обычные, SDH, SDH-Colored) (внешние srt*)-Режиссер: Элизабет Бэнкс / Elizabeth Banks
В ролях: Анна Кендрик, Ребел Уилсон, Хейли Стайнфелд, Бриттани Сноу, Скайлар Эстин, Адам Дивайн, Кэти Сагал, Анна Кэмп, Бен Платт, Алексис Нэп, Элизабет Бэнкс, Снуп Догг, Дэвид Кросс, Кигэн-Майкл Ки
О фильме: Самые крутые девчонки возвращаются! Теперь у них все по-взрослому: ремиксы — моднее, каблуки — выше, юбки — короче. Но идеальный голос всегда на месте.-Релиз:
Автор: yaroslaigor
Качество: BDRip (источник: / Blu-Ray CEE / 1080р)
Формат: AVI
Видео: 704x384 (1.83:1), 23.976 fps, XviD build 65 ~1819 kbps avg, 0.28 bit/pixel
Аудио #1: 48 kHz, AC3 Dolby Digital, 3/2 (L,C,R,l,r) + LFE ch, ~448.00 kbps avg rus
Аудио #2: 48 kHz, AC3 Dolby Digital, 3/2 (L,C,R,l,r) + LFE ch, ~448.00 kbps avg eng
Размер: 2235.13 Mb (1/2 DVD-R)
Скачать: Семпл-

Кадры из фильма
-
Mi
Формат : AVI
Формат/Информация : Audio Video Interleave
Профиль формата : OpenDML
Размер файла : 2,18 Гбайт
Продолжительность : 1 ч. 54 м.
Общий поток : 2723 Кбит/сек
Название фильма : Идеальный голос 2 / Pitch Perfect 2 (2015) BDRip
Режиссёр : yaroslaigor
Жанр : комедия, музыка
Программа кодирования : VirtualDubMod 1.5.10.2 (build 2542/release)
Правообладатель : HQCLUB
Примечание : 03.09.2015
Видео
Идентификатор : 0
Формат : MPEG-4 Visual
Профиль формата : Advanced Simple@L5
Параметр BVOP формата : 1
Параметр QPel формата : Нет
Параметр GMC формата : Без точки перехода
Параметр матрицы формата : Выборочная
Идентификатор кодека : XVID
Идентификатор кодека/Подсказка : XviD
Продолжительность : 1 ч. 54 м.
Битрейт : 1809 Кбит/сек
Ширина : 704 пикселя
Высота : 384 пикселя
Соотношение сторон : 1,85:1
Частота кадров : 23,976 кадра/сек
Цветовое пространство : YUV
Субдискретизация насыщенности : 4:2:0
Битовая глубина : 8 бит
Тип развёртки : Прогрессивная
Метод сжатия : С потерями
Бит/(Пиксели*Кадры) : 0.279
Размер потока : 1,45 Гбайт (66%)
Библиотека кодирования : XviD 65
Аудио #1
Идентификатор : 1
Формат : AC-3
Формат/Информация : Audio Coding 3
Расширение режима : CM (complete main)
Параметр Endianness формата : Big
Идентификатор кодека : 2000
Продолжительность : 1 ч. 54 м.
Вид битрейта : Постоянный
Битрейт : 448 Кбит/сек
Каналы : 6 каналов
Расположение каналов : Front: L C R, Side: L R, LFE
Частота : 48,0 КГц
Битовая глубина : 16 бит
Метод сжатия : С потерями
Размер потока : 368 Мбайт (16%)
Выравнивание : Разделение по промежуткам
Продолжительность промежутка : 42 мс. (1,00 видеокадр)
Время предзагрузки промежутка : 500 мс.
Аудио #2
Идентификатор : 2
Формат : AC-3
Формат/Информация : Audio Coding 3
Расширение режима : CM (complete main)
Параметр Endianness формата : Big
Идентификатор кодека : 2000
Продолжительность : 1 ч. 54 м.
Вид битрейта : Постоянный
Битрейт : 448 Кбит/сек
Каналы : 6 каналов
Расположение каналов : Front: L C R, Side: L R, LFE
Частота : 48,0 КГц
Битовая глубина : 16 бит
Метод сжатия : С потерями
Размер потока : 368 Мбайт (16%)
Выравнивание : Разделение по промежуткам
Продолжительность промежутка : 42 мс. (1,00 видеокадр)
Время предзагрузки промежутка : 500 мс.
-
Скачать

Скачать торрент!

Как скачивать? · Что такое торрент? · Рейтинг и ограничения

Сайт не распространяет и не хранит электронные версии произведений, а лишь предоставляет доступ к создаваемому пользователями каталогу ссылок на торрент-файлы, которые содержат только списки хеш-сумм

[Профиль] [ЛС]
Показать сообщения:    
Ответить на тему

Текущее время: Сегодня 19:57

Часовой пояс: GMT + 4



Вы не можете начинать темы
Вы не можете отвечать на сообщения
Вы не можете редактировать свои сообщения
Вы не можете удалять свои сообщения
Вы не можете голосовать в опросах
Вы не можете прикреплять файлы к сообщениям
Вы не можете скачивать файлы