Искусство боя / Ssa-um-ui Gi-sool / Art of Fighting (Хан-соль Шин / Han-sol Shin) [2006, Корея Южная, драма, комедия, DVDRip] VO (Mal)

Ответить на тему
 
Автор Сообщение

user ®

Стаж: 13 лет

Сообщений: 15071

Пост Пост: #1 от 14-Сен-2015 18:00

[Цитировать]

Искусство боя / Ssa-um-ui Gi-sool / Art of Fighting
Страна: Корея Южная
Жанр: драма, комедия
Год выпуска: 2006
Продолжительность: 01:38:07
Перевод: Одноголосый (закадровый) [Mal]
Оригинальная аудиодорожка: нет
Cубтитры:нет
Режиссер: Хан-соль Шин / Han-sol Shin
В ролях: Пэк Юн Сик, Сын-хён Бьон, Чхве Ё Чжин, Юн-жу ду, Hae-Yeon Gil, Ким Ын Су, Ли Хун Кён, Пак Ки Ун, Сон Бён Вук
Описание: Буюнгтая отец переводит в новую школу, и все бы хорошо, если бы он, только не приглянулся местным гопникам, под руководством шестерки мафии Пако, для издевательства над ним. И вот после очередного унижения парень решает, научится драться, но денег у него нет, помощи отца ждать, увы, не приходится, и окружают одни дешевые выпендрежники. К счастью для него, когда вроде бы рассчитывать уже не на что и похоже, что учится, придется по дешевым книжкам боевых искусств, в общежитие, где он живет въезжает загадочный постоялец, у которого на лице написано, не трогай убью. Буюнгтай начинает делать все возможное, чтобы привлечь к себе внимание гостя
и чтобы тот начал его обучать приемам каратэ, но человек загадка, ни в какую не соглашается..
Релиз:

Качество: DVDRip
Контейнер: AVI
Видео: 704x384 (1.83:1), 23.976 fps, XviD build 50 ~920 kbps avg, 0.14 bit/pixel
Аудио: 48 kHz, MPEG Layer 3, 2 ch, ~128.00 kbps avg

MI
Общее
Полное имя : D:\Мои рипы\The Art Of Fightin_DVDRi_743_Некул.avi
Формат : AVI
Формат/Информация : Audio Video Interleave
Размер файла : 743 Мбайт
Продолжительность : 1 ч. 38 м.
Общий поток : 1058 Кбит/сек
Программа кодирования : VirtualDubMod 1.5.10.3 | www.virtualdub-fr.org || (build 2550/release)
Библиотека кодирования : VirtualDubMod build 2550/release
Видео
Идентификатор : 0
Формат : MPEG-4 Visual
Профиль формата : Advanced Simple@L5
Параметр BVOP формата : 2
Параметр QPel формата : Нет
Параметр GMC формата : Без точки перехода
Параметр матрицы формата : Default (MPEG)
Идентификатор кодека : DX50
Идентификатор кодека/Подсказка : DivX 5
Продолжительность : 1 ч. 38 м.
Битрейт : 921 Кбит/сек
Ширина : 704 пикселя
Высота : 384 пикселя
Соотношение сторон : 1,85:1
Частота кадров : 23,976 кадра/сек
Цветовое пространство : YUV
Субдискретизация насыщенности : 4:2:0
Битовая глубина : 8 бит
Тип развёртки : Прогрессивная
Метод сжатия : С потерями
Бит/(Пиксели*Кадры) : 0.142
Размер потока : 647 Мбайт (87%)
Библиотека кодирования : XviD 1.2.1 (UTC 2008-12-04)
Аудио
Идентификатор : 1
Формат : MPEG Audio
Версия формата : Version 1
Профиль формата : Layer 3
Идентификатор кодека : 55
Идентификатор кодека/Подсказка : MP3
Продолжительность : 1 ч. 38 м.
Вид битрейта : Постоянный
Битрейт : 128 Кбит/сек
Каналы : 2 канала
Частота : 48,0 КГц
Метод сжатия : С потерями
Размер потока : 89,9 Мбайт (12%)
Выравнивание : Соединение по промежуткам
Продолжительность промежутка : 42 мс. (1,00 видеокадр)
Время предзагрузки промежутка : 504 мс.
Библиотека кодирования : LAME3.99r
Настройки программы : -m s -V 4 -q 2 -lowpass 17 -b 128
Скриншоты
Скачать

Скачать торрент! Искусство боя / Ssa-um-ui Gi-sool / Art of Fighting (Хан-соль Шин / Han-sol Shin) [2006, Корея Южная, драма, комедия, DVDRip] VO (Mal)

Как скачивать? · Что такое торрент? · Рейтинг и ограничения

Сайт не распространяет и не хранит электронные версии произведений, а лишь предоставляет доступ к создаваемому пользователями каталогу ссылок на торрент-файлы, которые содержат только списки хеш-сумм

[Профиль] [ЛС]
Показать сообщения:    
Ответить на тему

Текущее время: Сегодня 17:08

Часовой пояс: GMT + 4



Вы не можете начинать темы
Вы не можете отвечать на сообщения
Вы не можете редактировать свои сообщения
Вы не можете удалять свои сообщения
Вы не можете голосовать в опросах
Вы не можете прикреплять файлы к сообщениям
Вы не можете скачивать файлы