Банкет / The Banquet (Альфред Чеунг / Alfred Cheung, Клифтон Ко / Clifton Ko, Цуй Харк / Tsui Hark, Джо Чеунг / Joe Cheung) [1991, Гонконг, комедия, DVD5] VO

Ответить на тему
 
Автор Сообщение

user ®

Стаж: 13 лет

Сообщений: 15071

Пост Пост: #1 от 14-Сен-2015 11:48

[Цитировать]

Банкет / The Banquet
Страна: Гонконг
Жанр: комедия
Год выпуска: 1991
Продолжительность: 01:35:17
Перевод: Одноголосый закадровый
Cубтитры: Английские (вшитые)
Оригинальная аудиодорожка: Chinese
Режиссер: Альфред Чеунг / Alfred Cheung, Клифтон Ко / Clifton Ko, Цуй Харк / Tsui Hark, Джо Чеунг / Joe Cheung
В ролях: Саммо Хунг, Леунг Ка-Ян, Анита Муи, Кара Хуи, Карл Мака, Эрик Цанг, Джеки Чеунг, Кэрол Ченг, Ричард Нг, Розамунд Кван, Тони Леунг Чиу-Вэй, Аарон Квок, Айван Лай, Алан Там, Алекс Лау, Альфред Чеунг, Анг СанГонконг, Барри Вонг, Бен Вонг, Бесси Чан, Кван Хой-Сан
Описание: Циничный делец Тсанг Сиу-Чи (Эрик Тсанг) узнает, что в Гонконг приезжает нефтяной магнат – целью последнего является поиск подрядчика на масштабное строительство в Кувейте. По информации, которую получает Тсанг, араб до смерти любит своего отца и падок на все, что связано с крепкими семейными узами, поэтому он решает организовать гигантский банкет в честь дня рождения своего отца (Ричард Нг). Но тут возникает две проблемы – во-первых, со своим отцом Тсанг давно уже не общается, а во-вторых, конкурент Тсанга, Хунг (Саммо Хунг) не намерен уступать прибыльный контракт.
Меню: анимированное
Сэмпл: http://multi-up.com/1066181
Тип релиза: DVD5(Custom)
Контейнер: DVD-Video
Видео: MPEG 2, NTSC 4:3 (720x480) VBR, 29,970 частота кадров, 5600 Кбит/сек
Аудио: AC-3, Russian, 2 канала, 48,0 КГц, 192 Кбит/сек
Аудио 2: AC-3, Chinese, 2 канала, 48,0 КГц, 224 Кбит/сек
DVDInfo
Size: 3.99 Gb ( 4 186 820 KBytes ) - DVD-5
Enabled regions: 1, 2, 3, 4, 5, 6, 7, 8
VTS_01 :
Play Length: 00:00:21
Video: NTSC 4:3 (720x480) VBR
Audio:
Not specified (Dolby AC3, 6 ch)
VTS_02 :
Play Length: 01:35:17
Video: NTSC 4:3 (720x480) VBR
Audio:
Russian (Dolby AC3, 2 ch)
Chinese (Dolby AC3, 2 ch)
MediaInfo
Общее
Полное имя : Y:\Леунг Ка Ян\Банкет\Банкет\VIDEO_TS.BUP
Формат : DVD Video
Профиль формата : Menu
Размер файла : 14,0 Кбайт
Режим общего битрейта : Переменный
Видео
Идентификатор : 224 (0xE0)
Формат : MPEG Video
Версия формата : Version 1
Вид битрейта : Переменный
Ширина : 720 пикселей
Высота : 480 пикселей
Соотношение сторон : 4:3
Частота кадров : 29,970 кадров/сек
Стандарт вещания : NTSC
Метод сжатия : С потерями
Общее
Полное имя : Y:\Леунг Ка Ян\Банкет\Банкет\VIDEO_TS.IFO
Формат : DVD Video
Профиль формата : Menu
Размер файла : 14,0 Кбайт
Режим общего битрейта : Переменный
Видео
Идентификатор : 224 (0xE0)
Формат : MPEG Video
Версия формата : Version 1
Вид битрейта : Переменный
Ширина : 720 пикселей
Высота : 480 пикселей
Соотношение сторон : 4:3
Частота кадров : 29,970 кадров/сек
Стандарт вещания : NTSC
Метод сжатия : С потерями
Общее
Полное имя : Y:\Леунг Ка Ян\Банкет\Банкет\VTS_01_0.BUP
Формат : DVD Video
Профиль формата : Program
Размер файла : 20,0 Кбайт
Продолжительность : 21 с.
Режим общего битрейта : Переменный
Общий поток : 7790 бит/сек
Видео
Идентификатор : 224 (0xE0)
Формат : MPEG Video
Версия формата : Version 2
Продолжительность : 21 с.
Вид битрейта : Переменный
Ширина : 720 пикселей
Высота : 480 пикселей
Соотношение сторон : 4:3
Частота кадров : 29,970 кадров/сек
Стандарт вещания : NTSC
Метод сжатия : С потерями
Аудио #1
Идентификатор : 128 (0x80)
Формат : AC-3
Формат/Информация : Audio Coding 3
Продолжительность : 21 с.
Каналы : 6 каналов
Частота : 48,0 КГц
Метод сжатия : С потерями
Аудио #2
Формат : AC-3
Формат/Информация : Audio Coding 3
Продолжительность : 21 с.
Каналы : 6 каналов
Частота : 48,0 КГц
Метод сжатия : С потерями
Язык : English
Аудио #3
Формат : AC-3
Формат/Информация : Audio Coding 3
Продолжительность : 21 с.
Каналы : 6 каналов
Частота : 48,0 КГц
Метод сжатия : С потерями
Язык : English
Аудио #4
Формат : AC-3
Формат/Информация : Audio Coding 3
Продолжительность : 21 с.
Каналы : 6 каналов
Частота : 48,0 КГц
Метод сжатия : С потерями
Язык : English
Аудио #5
Формат : AC-3
Формат/Информация : Audio Coding 3
Продолжительность : 21 с.
Каналы : 6 каналов
Частота : 48,0 КГц
Метод сжатия : С потерями
Язык : English
Аудио #6
Формат : AC-3
Формат/Информация : Audio Coding 3
Продолжительность : 21 с.
Каналы : 6 каналов
Частота : 48,0 КГц
Метод сжатия : С потерями
Язык : English
Аудио #7
Формат : AC-3
Формат/Информация : Audio Coding 3
Продолжительность : 21 с.
Каналы : 6 каналов
Частота : 48,0 КГц
Метод сжатия : С потерями
Язык : English
Аудио #8
Формат : AC-3
Формат/Информация : Audio Coding 3
Продолжительность : 21 с.
Каналы : 6 каналов
Частота : 48,0 КГц
Метод сжатия : С потерями
Язык : English
Текст #1
Формат : RLE
Формат/Информация : Run-length encoding
Битовая глубина : 2 бит
Текст #2
Формат : RLE
Формат/Информация : Run-length encoding
Битовая глубина : 2 бит
Текст #3
Формат : RLE
Формат/Информация : Run-length encoding
Битовая глубина : 2 бит
Текст #4
Формат : RLE
Формат/Информация : Run-length encoding
Битовая глубина : 2 бит
Текст #5
Формат : RLE
Формат/Информация : Run-length encoding
Битовая глубина : 2 бит
Текст #6
Формат : RLE
Формат/Информация : Run-length encoding
Битовая глубина : 2 бит
Текст #7
Формат : RLE
Формат/Информация : Run-length encoding
Битовая глубина : 2 бит
Текст #8
Формат : RLE
Формат/Информация : Run-length encoding
Битовая глубина : 2 бит
Текст #9
Формат : RLE
Формат/Информация : Run-length encoding
Битовая глубина : 2 бит
Текст #10
Формат : RLE
Формат/Информация : Run-length encoding
Битовая глубина : 2 бит
Текст #11
Формат : RLE
Формат/Информация : Run-length encoding
Битовая глубина : 2 бит
Текст #12
Формат : RLE
Формат/Информация : Run-length encoding
Битовая глубина : 2 бит
Текст #13
Формат : RLE
Формат/Информация : Run-length encoding
Битовая глубина : 2 бит
Текст #14
Формат : RLE
Формат/Информация : Run-length encoding
Битовая глубина : 2 бит
Текст #15
Формат : RLE
Формат/Информация : Run-length encoding
Битовая глубина : 2 бит
Текст #16
Формат : RLE
Формат/Информация : Run-length encoding
Битовая глубина : 2 бит
Текст #17
Формат : RLE
Формат/Информация : Run-length encoding
Битовая глубина : 2 бит
Текст #18
Формат : RLE
Формат/Информация : Run-length encoding
Битовая глубина : 2 бит
Текст #19
Формат : RLE
Формат/Информация : Run-length encoding
Битовая глубина : 2 бит
Текст #20
Формат : RLE
Формат/Информация : Run-length encoding
Битовая глубина : 2 бит
Текст #21
Формат : RLE
Формат/Информация : Run-length encoding
Битовая глубина : 2 бит
Текст #22
Формат : RLE
Формат/Информация : Run-length encoding
Битовая глубина : 2 бит
Текст #23
Формат : RLE
Формат/Информация : Run-length encoding
Битовая глубина : 2 бит
Текст #24
Формат : RLE
Формат/Информация : Run-length encoding
Битовая глубина : 2 бит
Текст #25
Формат : RLE
Формат/Информация : Run-length encoding
Битовая глубина : 2 бит
Текст #26
Формат : RLE
Формат/Информация : Run-length encoding
Битовая глубина : 2 бит
Текст #27
Формат : RLE
Формат/Информация : Run-length encoding
Битовая глубина : 2 бит
Текст #28
Формат : RLE
Формат/Информация : Run-length encoding
Битовая глубина : 2 бит
Текст #29
Формат : RLE
Формат/Информация : Run-length encoding
Битовая глубина : 2 бит
Текст #30
Формат : RLE
Формат/Информация : Run-length encoding
Битовая глубина : 2 бит
Текст #31
Формат : RLE
Формат/Информация : Run-length encoding
Битовая глубина : 2 бит
Текст #32
Формат : RLE
Формат/Информация : Run-length encoding
Битовая глубина : 2 бит
Меню
Продолжительность : 21 с.
00:00:00.000 : Chapter 1
List (Audio) : 0
Общее
Полное имя : Y:\Леунг Ка Ян\Банкет\Банкет\VTS_01_0.IFO
Формат : DVD Video
Профиль формата : Program
Размер файла : 20,0 Кбайт
Продолжительность : 21 с.
Режим общего битрейта : Переменный
Общий поток : 7790 бит/сек
Видео
Идентификатор : 224 (0xE0)
Формат : MPEG Video
Версия формата : Version 2
Продолжительность : 21 с.
Вид битрейта : Переменный
Ширина : 720 пикселей
Высота : 480 пикселей
Соотношение сторон : 4:3
Частота кадров : 29,970 кадров/сек
Стандарт вещания : NTSC
Метод сжатия : С потерями
Аудио #1
Идентификатор : 128 (0x80)
Формат : AC-3
Формат/Информация : Audio Coding 3
Продолжительность : 21 с.
Каналы : 6 каналов
Частота : 48,0 КГц
Метод сжатия : С потерями
Аудио #2
Формат : AC-3
Формат/Информация : Audio Coding 3
Продолжительность : 21 с.
Каналы : 6 каналов
Частота : 48,0 КГц
Метод сжатия : С потерями
Язык : English
Аудио #3
Формат : AC-3
Формат/Информация : Audio Coding 3
Продолжительность : 21 с.
Каналы : 6 каналов
Частота : 48,0 КГц
Метод сжатия : С потерями
Язык : English
Аудио #4
Формат : AC-3
Формат/Информация : Audio Coding 3
Продолжительность : 21 с.
Каналы : 6 каналов
Частота : 48,0 КГц
Метод сжатия : С потерями
Язык : English
Аудио #5
Формат : AC-3
Формат/Информация : Audio Coding 3
Продолжительность : 21 с.
Каналы : 6 каналов
Частота : 48,0 КГц
Метод сжатия : С потерями
Язык : English
Аудио #6
Формат : AC-3
Формат/Информация : Audio Coding 3
Продолжительность : 21 с.
Каналы : 6 каналов
Частота : 48,0 КГц
Метод сжатия : С потерями
Язык : English
Аудио #7
Формат : AC-3
Формат/Информация : Audio Coding 3
Продолжительность : 21 с.
Каналы : 6 каналов
Частота : 48,0 КГц
Метод сжатия : С потерями
Язык : English
Аудио #8
Формат : AC-3
Формат/Информация : Audio Coding 3
Продолжительность : 21 с.
Каналы : 6 каналов
Частота : 48,0 КГц
Метод сжатия : С потерями
Язык : English
Текст #1
Формат : RLE
Формат/Информация : Run-length encoding
Битовая глубина : 2 бит
Текст #2
Формат : RLE
Формат/Информация : Run-length encoding
Битовая глубина : 2 бит
Текст #3
Формат : RLE
Формат/Информация : Run-length encoding
Битовая глубина : 2 бит
Текст #4
Формат : RLE
Формат/Информация : Run-length encoding
Битовая глубина : 2 бит
Текст #5
Формат : RLE
Формат/Информация : Run-length encoding
Битовая глубина : 2 бит
Текст #6
Формат : RLE
Формат/Информация : Run-length encoding
Битовая глубина : 2 бит
Текст #7
Формат : RLE
Формат/Информация : Run-length encoding
Битовая глубина : 2 бит
Текст #8
Формат : RLE
Формат/Информация : Run-length encoding
Битовая глубина : 2 бит
Текст #9
Формат : RLE
Формат/Информация : Run-length encoding
Битовая глубина : 2 бит
Текст #10
Формат : RLE
Формат/Информация : Run-length encoding
Битовая глубина : 2 бит
Текст #11
Формат : RLE
Формат/Информация : Run-length encoding
Битовая глубина : 2 бит
Текст #12
Формат : RLE
Формат/Информация : Run-length encoding
Битовая глубина : 2 бит
Текст #13
Формат : RLE
Формат/Информация : Run-length encoding
Битовая глубина : 2 бит
Текст #14
Формат : RLE
Формат/Информация : Run-length encoding
Битовая глубина : 2 бит
Текст #15
Формат : RLE
Формат/Информация : Run-length encoding
Битовая глубина : 2 бит
Текст #16
Формат : RLE
Формат/Информация : Run-length encoding
Битовая глубина : 2 бит
Текст #17
Формат : RLE
Формат/Информация : Run-length encoding
Битовая глубина : 2 бит
Текст #18
Формат : RLE
Формат/Информация : Run-length encoding
Битовая глубина : 2 бит
Текст #19
Формат : RLE
Формат/Информация : Run-length encoding
Битовая глубина : 2 бит
Текст #20
Формат : RLE
Формат/Информация : Run-length encoding
Битовая глубина : 2 бит
Текст #21
Формат : RLE
Формат/Информация : Run-length encoding
Битовая глубина : 2 бит
Текст #22
Формат : RLE
Формат/Информация : Run-length encoding
Битовая глубина : 2 бит
Текст #23
Формат : RLE
Формат/Информация : Run-length encoding
Битовая глубина : 2 бит
Текст #24
Формат : RLE
Формат/Информация : Run-length encoding
Битовая глубина : 2 бит
Текст #25
Формат : RLE
Формат/Информация : Run-length encoding
Битовая глубина : 2 бит
Текст #26
Формат : RLE
Формат/Информация : Run-length encoding
Битовая глубина : 2 бит
Текст #27
Формат : RLE
Формат/Информация : Run-length encoding
Битовая глубина : 2 бит
Текст #28
Формат : RLE
Формат/Информация : Run-length encoding
Битовая глубина : 2 бит
Текст #29
Формат : RLE
Формат/Информация : Run-length encoding
Битовая глубина : 2 бит
Текст #30
Формат : RLE
Формат/Информация : Run-length encoding
Битовая глубина : 2 бит
Текст #31
Формат : RLE
Формат/Информация : Run-length encoding
Битовая глубина : 2 бит
Текст #32
Формат : RLE
Формат/Информация : Run-length encoding
Битовая глубина : 2 бит
Меню
Продолжительность : 21 с.
00:00:00.000 : Chapter 1
List (Audio) : 0
Общее
Полное имя : Y:\Леунг Ка Ян\Банкет\Банкет\VTS_01_0.VOB
Формат : MPEG-PS
Размер файла : 24,6 Мбайт
Продолжительность : 30 с.
Общий поток : 6872 Кбит/сек
Видео
Идентификатор : 224 (0xE0)
Формат : MPEG Video
Версия формата : Version 2
Профиль формата : Main@Main
Параметр BVOP формата : Да
Параметр матрицы формата : Выборочная
Параметр GOP формата : M=3, N=15
Структура изображения : Frame
Продолжительность : 30 с.
Битрейт : 6300 Кбит/сек
Ширина : 720 пикселей
Высота : 480 пикселей
Соотношение сторон : 4:3
Частота кадров : 29,970 кадров/сек
Стандарт вещания : NTSC
Цветовое пространство : YUV
Субдискретизация насыщенности : 4:2:0
Битовая глубина : 8 бит
Тип развёртки : Чересстрочная
Порядок развёртки : Верхнее поле первое
Метод сжатия : С потерями
Бит/(Пиксели*Кадры) : 0.608
Временной код первого кадра : 00:24:20:03
Оригинал временного кода : Group of pictures header
GOP, открыто/закрыто : Закрыто
Размер потока : 22,5 Мбайт (91%)
Аудио
Идентификатор : 189 (0xBD)-128 (0x80)
Формат : AC-3
Формат/Информация : Audio Coding 3
Расширение режима : CM (complete main)
Параметр Endianness формата : Big
Режим смешивания : DVD-Video
Продолжительность : 30 с.
Вид битрейта : Постоянный
Битрейт : 448 Кбит/сек
Каналы : 6 каналов
Расположение каналов : Front: L C R, Side: L R, LFE
Частота : 48,0 КГц
Метод сжатия : С потерями
Размер потока : 1,60 Мбайт (7%)
Текст
Идентификатор : 189 (0xBD)-32 (0x20)
Формат : RLE
Формат/Информация : Run-length encoding
Режим смешивания : DVD-Video
Меню
Общее
Полное имя : Y:\Леунг Ка Ян\Банкет\Банкет\VTS_01_1.VOB
Формат : MPEG-PS
Размер файла : 15,5 Мбайт
Продолжительность : 21 с.
Общий поток : 6190 Кбит/сек
Видео
Идентификатор : 224 (0xE0)
Формат : MPEG Video
Версия формата : Version 2
Профиль формата : Main@Main
Параметр BVOP формата : Да
Параметр матрицы формата : Выборочная
Параметр GOP формата : M=3, N=15
Структура изображения : Frame
Продолжительность : 21 с.
Битрейт : 5600 Кбит/сек
Ширина : 720 пикселей
Высота : 480 пикселей
Соотношение сторон : 4:3
Частота кадров : 29,970 кадров/сек
Стандарт вещания : NTSC
Цветовое пространство : YUV
Субдискретизация насыщенности : 4:2:0
Битовая глубина : 8 бит
Тип развёртки : Чересстрочная
Порядок развёртки : Верхнее поле первое
Метод сжатия : С потерями
Бит/(Пиксели*Кадры) : 0.541
Временной код первого кадра : 00:59:59;25
Оригинал временного кода : Group of pictures header
GOP, открыто/закрыто : Закрыто
Размер потока : 14,1 Мбайт (91%)
Аудио
Идентификатор : 189 (0xBD)-128 (0x80)
Формат : AC-3
Формат/Информация : Audio Coding 3
Расширение режима : CM (complete main)
Параметр Endianness формата : Big
Режим смешивания : DVD-Video
Продолжительность : 21 с.
Вид битрейта : Постоянный
Битрейт : 448 Кбит/сек
Каналы : 6 каналов
Расположение каналов : Front: L C R, Side: L R, LFE
Частота : 48,0 КГц
Метод сжатия : С потерями
Задержка видео : 4 мс.
Размер потока : 1,12 Мбайт (7%)
Меню
Общее
Полное имя : Y:\Леунг Ка Ян\Банкет\Банкет\VTS_02_0.BUP
Формат : DVD Video
Профиль формата : Program
Размер файла : 68,0 Кбайт
Продолжительность : 1 ч. 35 м.
Режим общего битрейта : Переменный
Общий поток : 97 бит/сек
Видео
Идентификатор : 224 (0xE0)
Формат : MPEG Video
Версия формата : Version 2
Продолжительность : 1 ч. 35 м.
Вид битрейта : Переменный
Ширина : 720 пикселей
Высота : 480 пикселей
Соотношение сторон : 4:3
Частота кадров : 29,970 кадров/сек
Стандарт вещания : NTSC
Метод сжатия : С потерями
Аудио #1
Идентификатор : 128 (0x80)
Формат : AC-3
Формат/Информация : Audio Coding 3
Продолжительность : 1 ч. 35 м.
Каналы : 2 канала
Частота : 48,0 КГц
Метод сжатия : С потерями
Язык : Russian
Аудио #2
Идентификатор : 129 (0x81)
Формат : AC-3
Формат/Информация : Audio Coding 3
Продолжительность : 1 ч. 35 м.
Каналы : 2 канала
Частота : 48,0 КГц
Метод сжатия : С потерями
Язык : Chinese
Меню
Продолжительность : 1 ч. 35 м.
00:00:00.000 : Chapter 1
00:16:06.500 : Chapter 2
00:31:55.000 : Chapter 3
00:46:56.500 : Chapter 4
01:04:05.900 : Chapter 5
01:19:51.900 : Chapter 6
List (Audio) : 0 / 1
Общее
Полное имя : Y:\Леунг Ка Ян\Банкет\Банкет\VTS_02_0.IFO
Формат : DVD Video
Профиль формата : Program
Размер файла : 68,0 Кбайт
Продолжительность : 1 ч. 35 м.
Режим общего битрейта : Переменный
Общий поток : 97 бит/сек
Видео
Идентификатор : 224 (0xE0)
Формат : MPEG Video
Версия формата : Version 2
Продолжительность : 1 ч. 35 м.
Вид битрейта : Переменный
Ширина : 720 пикселей
Высота : 480 пикселей
Соотношение сторон : 4:3
Частота кадров : 29,970 кадров/сек
Стандарт вещания : NTSC
Метод сжатия : С потерями
Аудио #1
Идентификатор : 128 (0x80)
Формат : AC-3
Формат/Информация : Audio Coding 3
Продолжительность : 1 ч. 35 м.
Каналы : 2 канала
Частота : 48,0 КГц
Метод сжатия : С потерями
Язык : Russian
Аудио #2
Идентификатор : 129 (0x81)
Формат : AC-3
Формат/Информация : Audio Coding 3
Продолжительность : 1 ч. 35 м.
Каналы : 2 канала
Частота : 48,0 КГц
Метод сжатия : С потерями
Язык : Chinese
Меню
Продолжительность : 1 ч. 35 м.
00:00:00.000 : Chapter 1
00:16:06.500 : Chapter 2
00:31:55.000 : Chapter 3
00:46:56.500 : Chapter 4
01:04:05.900 : Chapter 5
01:19:51.900 : Chapter 6
List (Audio) : 0 / 1
Общее
Полное имя : Y:\Леунг Ка Ян\Банкет\Банкет\VTS_02_0.VOB
Формат : MPEG-PS
Размер файла : 114 Кбайт
Продолжительность : 467 мс.
Общий поток : 2000 Кбит/сек
Видео
Идентификатор : 224 (0xE0)
Формат : MPEG Video
Версия формата : Version 2
Профиль формата : Main@Main
Параметр BVOP формата : Да
Параметр матрицы формата : Выборочная
Структура изображения : Frame
Продолжительность : 467 мс.
Максимальный битрейт : 2000 Кбит/сек
Ширина : 720 пикселей
Высота : 480 пикселей
Соотношение сторон : 4:3
Частота кадров : 29,970 кадров/сек
Стандарт вещания : NTSC
Цветовое пространство : YUV
Субдискретизация насыщенности : 4:2:0
Битовая глубина : 8 бит
Тип развёртки : Чересстрочная
Порядок развёртки : Верхнее поле первое
Метод сжатия : С потерями
Временной код первого кадра : 00:00:00:01
Оригинал временного кода : Group of pictures header
Текст
Идентификатор : 189 (0xBD)-32 (0x20)
Формат : RLE
Формат/Информация : Run-length encoding
Режим смешивания : DVD-Video
Меню
Общее
Полное имя : Y:\Леунг Ка Ян\Банкет\Банкет\VTS_02_1.VOB
Формат : MPEG-PS
Размер файла : 1024 Мбайт
Продолжительность : 24 м.
Общий поток : 5934 Кбит/сек
Видео
Идентификатор : 224 (0xE0)
Формат : MPEG Video
Версия формата : Version 2
Профиль формата : Main@Main
Параметр BVOP формата : Да
Параметр матрицы формата : Выборочная
Параметр GOP формата : M=3, N=15
Структура изображения : Frame
Продолжительность : 24 м.
Битрейт : 5400 Кбит/сек
Ширина : 720 пикселей
Высота : 480 пикселей
Соотношение сторон : 4:3
Частота кадров : 29,970 кадров/сек
Стандарт вещания : NTSC
Цветовое пространство : YUV
Субдискретизация насыщенности : 4:2:0
Битовая глубина : 8 бит
Тип развёртки : Чересстрочная
Порядок развёртки : Верхнее поле первое
Метод сжатия : С потерями
Бит/(Пиксели*Кадры) : 0.521
Временной код первого кадра : 01:00:00;00
Оригинал временного кода : Group of pictures header
GOP, открыто/закрыто : Закрыто
Размер потока : 932 Мбайт (91%)
Аудио #1
Идентификатор : 189 (0xBD)-128 (0x80)
Формат : AC-3
Формат/Информация : Audio Coding 3
Расширение режима : CM (complete main)
Параметр Endianness формата : Big
Режим смешивания : DVD-Video
Продолжительность : 24 м.
Вид битрейта : Постоянный
Битрейт : 192 Кбит/сек
Каналы : 2 канала
Расположение каналов : Front: L R
Частота : 48,0 КГц
Метод сжатия : С потерями
Размер потока : 33,1 Мбайт (3%)
Аудио #2
Идентификатор : 189 (0xBD)-129 (0x81)
Формат : AC-3
Формат/Информация : Audio Coding 3
Расширение режима : CM (complete main)
Параметр Endianness формата : Big
Режим смешивания : DVD-Video
Продолжительность : 24 м.
Вид битрейта : Постоянный
Битрейт : 224 Кбит/сек
Каналы : 2 канала
Расположение каналов : Front: L R
Частота : 48,0 КГц
Метод сжатия : С потерями
Размер потока : 38,7 Мбайт (4%)
Меню
Общее
Полное имя : Y:\Леунг Ка Ян\Банкет\Банкет\VTS_02_2.VOB
Формат : MPEG-PS
Размер файла : 1024 Мбайт
Продолжительность : 24 м.
Общий поток : 5933 Кбит/сек
Видео
Идентификатор : 224 (0xE0)
Формат : MPEG Video
Версия формата : Version 2
Профиль формата : Main@Main
Параметр BVOP формата : Да
Параметр матрицы формата : Выборочная
Параметр GOP формата : M=3, N=15
Структура изображения : Frame
Продолжительность : 24 м.
Битрейт : 5400 Кбит/сек
Ширина : 720 пикселей
Высота : 480 пикселей
Соотношение сторон : 4:3
Частота кадров : 29,970 кадров/сек
Стандарт вещания : NTSC
Цветовое пространство : YUV
Субдискретизация насыщенности : 4:2:0
Битовая глубина : 8 бит
Тип развёртки : Чересстрочная
Порядок развёртки : Верхнее поле первое
Метод сжатия : С потерями
Бит/(Пиксели*Кадры) : 0.521
Временной код первого кадра : 01:24:07;29
Оригинал временного кода : Group of pictures header
GOP, открыто/закрыто : Закрыто
Размер потока : 932 Мбайт (91%)
Аудио #1
Идентификатор : 189 (0xBD)-128 (0x80)
Формат : AC-3
Формат/Информация : Audio Coding 3
Расширение режима : CM (complete main)
Параметр Endianness формата : Big
Режим смешивания : DVD-Video
Продолжительность : 24 м.
Вид битрейта : Постоянный
Битрейт : 192 Кбит/сек
Каналы : 2 канала
Расположение каналов : Front: L R
Частота : 48,0 КГц
Метод сжатия : С потерями
Задержка видео : -362 мс.
Размер потока : 33,1 Мбайт (3%)
Аудио #2
Идентификатор : 189 (0xBD)-129 (0x81)
Формат : AC-3
Формат/Информация : Audio Coding 3
Расширение режима : CM (complete main)
Параметр Endianness формата : Big
Режим смешивания : DVD-Video
Продолжительность : 24 м.
Вид битрейта : Постоянный
Битрейт : 224 Кбит/сек
Каналы : 2 канала
Расположение каналов : Front: L R
Частота : 48,0 КГц
Метод сжатия : С потерями
Задержка видео : -362 мс.
Размер потока : 38,7 Мбайт (4%)
Меню
Общее
Полное имя : Y:\Леунг Ка Ян\Банкет\Банкет\VTS_02_3.VOB
Формат : MPEG-PS
Размер файла : 1024 Мбайт
Продолжительность : 24 м.
Общий поток : 5934 Кбит/сек
Видео
Идентификатор : 224 (0xE0)
Формат : MPEG Video
Версия формата : Version 2
Профиль формата : Main@Main
Параметр BVOP формата : Да
Параметр матрицы формата : Выборочная
Параметр GOP формата : M=3, N=15
Структура изображения : Frame
Продолжительность : 24 м.
Битрейт : 5400 Кбит/сек
Ширина : 720 пикселей
Высота : 480 пикселей
Соотношение сторон : 4:3
Частота кадров : 29,970 кадров/сек
Стандарт вещания : NTSC
Цветовое пространство : YUV
Субдискретизация насыщенности : 4:2:0
Битовая глубина : 8 бит
Тип развёртки : Чересстрочная
Порядок развёртки : Верхнее поле первое
Метод сжатия : С потерями
Бит/(Пиксели*Кадры) : 0.521
Временной код первого кадра : 01:48:15;13
Оригинал временного кода : Group of pictures header
GOP, открыто/закрыто : Закрыто
Размер потока : 932 Мбайт (91%)
Аудио #1
Идентификатор : 189 (0xBD)-128 (0x80)
Формат : AC-3
Формат/Информация : Audio Coding 3
Расширение режима : CM (complete main)
Параметр Endianness формата : Big
Режим смешивания : DVD-Video
Продолжительность : 24 м.
Вид битрейта : Постоянный
Битрейт : 192 Кбит/сек
Каналы : 2 канала
Расположение каналов : Front: L R
Частота : 48,0 КГц
Метод сжатия : С потерями
Задержка видео : -64 мс.
Размер потока : 33,1 Мбайт (3%)
Аудио #2
Идентификатор : 189 (0xBD)-129 (0x81)
Формат : AC-3
Формат/Информация : Audio Coding 3
Расширение режима : CM (complete main)
Параметр Endianness формата : Big
Режим смешивания : DVD-Video
Продолжительность : 24 м.
Вид битрейта : Постоянный
Битрейт : 224 Кбит/сек
Каналы : 2 канала
Расположение каналов : Front: L R
Частота : 48,0 КГц
Метод сжатия : С потерями
Задержка видео : -32 мс.
Размер потока : 38,7 Мбайт (4%)
Меню
Общее
Полное имя : Y:\Леунг Ка Ян\Банкет\Банкет\VTS_02_4.VOB
Формат : MPEG-PS
Размер файла : 976 Мбайт
Продолжительность : 23 м.
Общий поток : 5933 Кбит/сек
Видео
Идентификатор : 224 (0xE0)
Формат : MPEG Video
Версия формата : Version 2
Профиль формата : Main@Main
Параметр BVOP формата : Да
Параметр матрицы формата : Выборочная
Параметр GOP формата : M=3, N=15
Структура изображения : Frame
Продолжительность : 23 м.
Битрейт : 5400 Кбит/сек
Ширина : 720 пикселей
Высота : 480 пикселей
Соотношение сторон : 4:3
Частота кадров : 29,970 кадров/сек
Стандарт вещания : NTSC
Цветовое пространство : YUV
Субдискретизация насыщенности : 4:2:0
Битовая глубина : 8 бит
Тип развёртки : Чересстрочная
Порядок развёртки : Верхнее поле первое
Метод сжатия : С потерями
Бит/(Пиксели*Кадры) : 0.521
Временной код первого кадра : 01:22:44;25
Оригинал временного кода : Group of pictures header
GOP, открыто/закрыто : Закрыто
Размер потока : 888 Мбайт (91%)
Аудио #1
Идентификатор : 189 (0xBD)-128 (0x80)
Формат : AC-3
Формат/Информация : Audio Coding 3
Расширение режима : CM (complete main)
Параметр Endianness формата : Big
Режим смешивания : DVD-Video
Продолжительность : 23 м.
Вид битрейта : Постоянный
Битрейт : 192 Кбит/сек
Каналы : 2 канала
Расположение каналов : Front: L R
Частота : 48,0 КГц
Метод сжатия : С потерями
Задержка видео : -263 мс.
Размер потока : 31,6 Мбайт (3%)
Аудио #2
Идентификатор : 189 (0xBD)-129 (0x81)
Формат : AC-3
Формат/Информация : Audio Coding 3
Расширение режима : CM (complete main)
Параметр Endianness формата : Big
Режим смешивания : DVD-Video
Продолжительность : 23 м.
Вид битрейта : Постоянный
Битрейт : 224 Кбит/сек
Каналы : 2 канала
Расположение каналов : Front: L R
Частота : 48,0 КГц
Метод сжатия : С потерями
Задержка видео : -263 мс.
Размер потока : 36,9 Мбайт (4%)
Меню
Скриншоты меню Скриншоты
Скачать

Скачать торрент! Банкет / The Banquet (Альфред Чеунг / Alfred Cheung, Клифтон Ко / Clifton Ko, Цуй Харк / Tsui Hark, Джо Чеунг / Joe Cheung) [1991, Гонконг, комедия, DVD5] VO

Как скачивать? · Что такое торрент? · Рейтинг и ограничения

Сайт не распространяет и не хранит электронные версии произведений, а лишь предоставляет доступ к создаваемому пользователями каталогу ссылок на торрент-файлы, которые содержат только списки хеш-сумм

[Профиль] [ЛС]
Показать сообщения:    
Ответить на тему

Текущее время: Сегодня 18:17

Часовой пояс: GMT + 4



Вы не можете начинать темы
Вы не можете отвечать на сообщения
Вы не можете редактировать свои сообщения
Вы не можете удалять свои сообщения
Вы не можете голосовать в опросах
Вы не можете прикреплять файлы к сообщениям
Вы не можете скачивать файлы