Мальчишки 20-го века: Глава вторая - последняя надежда / 20th Century Boys: Chapter 2 - The Last Hope (Юкихико Цуцуми / Yukihiko Tsutsumi) [2009, Япония, драма, триллер, фантастика, DVDRip] Sub (Rus)

Ответить на тему
 
Автор Сообщение

user ®

Стаж: 13 лет

Сообщений: 15071

Пост Пост: #1 от 14-Сен-2015 11:48

[Цитировать]

Мальчишки 20-го века: Глава вторая - последняя надежда
20th Century Boys: Chapter 2 - The Last Hope

Страна: Япония
Жанр: драма, триллер, фантастика
Год выпуска: 2009
Продолжительность: 02:20:17
Перевод: Субтитры (elserjo)
Cубтитры: русские
Оригинальная аудиодорожка: Японский
Режиссер: Юкихико Цуцуми / Yukihiko Tsutsumi
В ролях: Айри Тайра, Эцуси Тоёкава, Такако Токива, Тэруюки Кагава, Такаси Укадзи, Кацуо Накамура
Описание: События фильма разворачиваются спустя 15 лет после кровавого кануна нового года. Демократическая партия дружбы теперь стоит у власти, а всех, кто хоть как-нибудь выступает против неё, отправляет в тюрьмы. Чтобы узнать, кто всё это время скрывался под маской Друга, Канна, племянница Кендзи, вместе со своей одноклассницей Коидзуми Кёко отправляется в "Страну Друга", место, использующееся партией для промывки мозгов. В то же время старые друзья Кендзи узнают о существовании Новой книги пророчеств.
Доп. информация: Экранизация [url=http://***/forum/viewtopic.php?t=4629580]одноимённой манги[/url] Наоки Урасавы.
Сэмпл: http://sendfile.su/1154214
Качество видео: DVDRip
Формат видео: AVI
Видео: XviD MPEG-4, 720x384, 25fps, 1204 Kbps
Аудио: Dolby AC3, 48000Hz, 192 Kbps, 2ch
Формат субтитров: softsub (SSA/ASS)
MediaInfo
General
Complete name : C:\Users\elser_000\Documents\Downloads\20th Century Boys Movie 2\20th_Century_Boys_Ch2.avi
Format : AVI
Format/Info : Audio Video Interleave
File size : 1.37 GiB
Duration : 2h 20mn
Overall bit rate : 1 396 Kbps
Writing application : VirtualDubMod 1.5.4.1 (build 2178/release)
Writing library : VirtualDubMod build 2178/release
Video
ID : 0
Format : MPEG-4 Visual
Format profile : AdvancedSimple@L5
Format settings, BVOP : Yes
Format settings, QPel : No
Format settings, GMC : No warppoints
Format settings, Matrix : Custom
Codec ID : XVID
Codec ID/Hint : XviD
Duration : 2h 20mn
Bit rate : 1 197 Kbps
Width : 720 pixels
Height : 384 pixels
Display aspect ratio : 1.875
Frame rate : 25.000 fps
Resolution : 24 bits
Colorimetry : 4:2:0
Scan type : Progressive
Bits/(Pixel*Frame) : 0.173
Stream size : 1.17 GiB (86%)
Writing library : XviD 1.2.1 (UTC 2008-12-04)
Audio
ID : 1
Format : AC-3
Format/Info : Audio Coding 3
Codec ID : 2000
Duration : 2h 20mn
Bit rate mode : Constant
Bit rate : 192 Kbps
Channel(s) : 2 channels
Channel positions : L R
Sampling rate : 48.0 KHz
Stream size : 193 MiB (14%)
Alignment : Split accross interleaves
Interleave, duration : 96 ms (2.40 video frames)
Interleave, preload duration : 96 ms
Language : Japanese
Скриншот c названием фильма Скриншоты Пример субтитров
Dialogue: 0,0:09:02.04,0:09:05.51,Default,,0000,0000,0000,,Так, слушайте внимательно, это важно.
Dialogue: 0,0:09:03.36,0:09:05.51,Comment,,0000,0000,0000,,Муниципальная старшая школа Син-Окубо
Dialogue: 0,0:09:06.02,0:09:11.66,Default,,0000,0000,0000,,31 декабря 2000 года по всему миру распространился смертельный вирус.
Dialogue: 0,0:09:12.00,0:09:13.91,Default,,0000,0000,0000,,Все были уверены, что миру настал конец.
Dialogue: 0,0:09:14.39,0:09:16.97,Default,,0000,0000,0000,,Перестаньте играться с лазерными резинками.
Dialogue: 0,0:09:17.68,0:09:21.11,Default,,0000,0000,0000,,После этого по телевизору показали экстренные новости.
Dialogue: 0,0:09:21.54,0:09:26.42,Default,,0000,0000,0000,,В Токио был замечен гигантский неопознанный объект.
Dialogue: 0,0:09:26.64,0:09:31.16,Default,,0000,0000,0000,,Если бы не Друг, мир перестал бы существовать.
Dialogue: 0,0:09:31.69,0:09:33.60,Default,,0000,0000,0000,,Он остановил террориста Кендзи.
Dialogue: 0,0:09:33.60,0:09:35.10,Default,,0000,0000,0000,,Сэнсэй, это не так!
Dialogue: 0,0:09:36.26,0:09:38.82,Default,,0000,0000,0000,,Эндо, опять ты за своё...
Dialogue: 0,0:09:39.44,0:09:41.74,Default,,0000,0000,0000,,Будь это правдой, он бы не стал находиться в таком опасном месте!
Dialogue: 0,0:09:42.25,0:09:45.97,Default,,0000,0000,0000,,Говорю же, это был дистанционно управляемый робот!
Dialogue: 0,0:09:46.19,0:09:50.17,Default,,0000,0000,0000,,Больше похоже на то, что они противостояли ему!
Dialogue: 0,0:09:50.24,0:09:50.88,Default,,0000,0000,0000,,Ладно.
Dialogue: 0,0:09:51.10,0:09:54.34,Default,,0000,0000,0000,,Ребята, что вы думаете на этот счёт?
Dialogue: 0,0:09:57.94,0:09:58.68,Default,,0000,0000,0000,,Коидзуми!
Dialogue: 0,0:09:59.08,0:10:01.06,Default,,0000,0000,0000,,Да, была здесь с самого утра!
Dialogue: 0,0:10:01.20,0:10:03.11,Default,,0000,0000,0000,,Что ты думаешь насчёт фотографии?
Dialogue: 0,0:10:03.12,0:10:06.91,Default,,0000,0000,0000,,Так... ну...
Dialogue: 0,0:10:06.96,0:10:08.11,Default,,0000,0000,0000,,Странным ничего не кажется?
Dialogue: 0,0:10:09.92,0:10:13.15,Default,,0000,0000,0000,,Ну... наверное, странная...
Dialogue: 0,0:10:14.14,0:10:17.07,Default,,0000,0000,0000,,Тогда ты на эту тему напишешь доклад.
Скачать

Скачать торрент! Мальчишки 20-го века: Глава вторая - последняя надежда / 20th Century Boys: Chapter 2 - The Last Hope (Юкихико Цуцуми / Yukihiko Tsutsumi) [2009, Япония, драма, триллер, фантастика, DVDRip] Sub (Rus)

Как скачивать? · Что такое торрент? · Рейтинг и ограничения

Сайт не распространяет и не хранит электронные версии произведений, а лишь предоставляет доступ к создаваемому пользователями каталогу ссылок на торрент-файлы, которые содержат только списки хеш-сумм

[Профиль] [ЛС]
Показать сообщения:    
Ответить на тему

Текущее время: Сегодня 21:36

Часовой пояс: GMT + 4



Вы не можете начинать темы
Вы не можете отвечать на сообщения
Вы не можете редактировать свои сообщения
Вы не можете удалять свои сообщения
Вы не можете голосовать в опросах
Вы не можете прикреплять файлы к сообщениям
Вы не можете скачивать файлы