Виновный в романе / Guilty of Romance / Koi no tsumi (Сион Соно / Shion Sono) [2011, Япония, ужасы, драма, эротика, HDRip] DVO (DeadSno & den904)

Ответить на тему
 
Автор Сообщение

user ®

Стаж: 13 лет

Сообщений: 15071

Пост Пост: #1 от 13-Сен-2015 20:15

[Цитировать]

Виновный в романе / Guilty of Romance / Koi no tsumi
Страна: Япония
Жанр: ужасы, драма, эротика
Год выпуска: 2011
Продолжительность: 01:53:00
Перевод: Любительский (двухголосый закадровый) DeadSno & den904
Cубтитры: нет
Режиссер: Сион Соно / Shion Sono
В ролях: Мики Мизуно, Макото Тогаши, Мегуми Кагуразака, Казуя Коджима, Сатоши Никайдо, Рюи Кобаяши, Шинго Готсуджи, Мотоки Фуками, Чика Учида, Мари Мачида.
Описание: Ицуми замужем за известным писателем романтического жанра, но их семейная жизнь выглядит как повесть, лишённая романтики. Однажды она решает последовать своим желаниям и соглашается обнажённой имитировать секс перед камерой. Остановится ли Ицуми в своих желаниях и удастся ли ей совмещать новые занятия с ролью заботливой жены?

Качество видео: HDRip [url=http://***/forum/viewtopic.php?t=4885959]Исходник[/url]
Формат видео: AVI
Видео: 608x336, 24.000 fps, XviD ~800 kbps avg, 0.163 bit/pixel
Аудио: 48.0 kHz, MPEG Layer 3, 2 ch, ~112 kbps avgРелиз группы [url=http://***/forum/viewtopic.php?t=1677970] [/url]MediaInfo
General
Complete name               : C:\Video\Guilty of Romance HDRip.avi
Format                      : AVI
Format/Info                 : Audio Video Interleave
File size                   : 744 MiB
Duration                    : 1h 53mn
Overall bit rate            : 921 Kbps
Writing application         : VirtualDubMod 1.5.10.3 | www.virtualdub-fr.org || (build 2550/release)
Writing library             : VirtualDubMod build 2550/release
Video
ID                          : 0
Format                      : MPEG-4 Visual
Format profile              : Advanced Simple@L5
Format settings, BVOP       : 2
Format settings, QPel       : No
Format settings, GMC        : No warppoints
Format settings, Matrix     : Custom
Codec ID                    : XVID
Codec ID/Hint               : XviD
Duration                    : 1h 53mn
Bit rate                    : 800 Kbps
Width                       : 608 pixels
Height                      : 336 pixels
Display aspect ratio        : 16:9
Frame rate                  : 24.000 fps
Color space                 : YUV
Chroma subsampling          : 4:2:0
Bit depth                   : 8 bits
Scan type                   : Progressive
Compression mode            : Lossy
Bits/(Pixel*Frame)          : 0.163
Stream size                 : 646 MiB (87%)
Writing library             : XviD 1.2.1 (UTC 2008-12-04)
Audio
ID                          : 1
Format                      : MPEG Audio
Format version              : Version 1
Format profile              : Layer 3
Codec ID                    : 55
Codec ID/Hint               : MP3
Duration                    : 1h 53mn
Bit rate mode               : Constant
Bit rate                    : 112 Kbps
Channel(s)                  : 2 channels
Sampling rate               : 48.0 KHz
Compression mode            : Lossy
Stream size                 : 90.5 MiB (12%)
Alignment                   : Aligned on interleaves
Interleave, duration        : 42 ms (1.00 video frame)
Interleave, preload duratio : 504 ms
Writing library             : LAME3.99r
Encoding settings           : -m s -V 4 -q 0 -lowpass 15.6 -b 112
Сэмпл Скриншот c названием фильма Скриншоты

Скриншоты для взрослых
Скачать

Скачать торрент! Виновный в романе / Guilty of Romance / Koi no tsumi (Сион Соно / Shion Sono) [2011, Япония, ужасы, драма, эротика, HDRip] DVO (DeadSno & den904)

Как скачивать? · Что такое торрент? · Рейтинг и ограничения

Сайт не распространяет и не хранит электронные версии произведений, а лишь предоставляет доступ к создаваемому пользователями каталогу ссылок на торрент-файлы, которые содержат только списки хеш-сумм

[Профиль] [ЛС]
Показать сообщения:    
Ответить на тему

Текущее время: Сегодня 11:41

Часовой пояс: GMT + 4



Вы не можете начинать темы
Вы не можете отвечать на сообщения
Вы не можете редактировать свои сообщения
Вы не можете удалять свои сообщения
Вы не можете голосовать в опросах
Вы не можете прикреплять файлы к сообщениям
Вы не можете скачивать файлы