Дом мертвецов / Дом смерти / House of the Dead (Уве Болл / Uwe Boll) [2003, Германия, Канада, США, ужасы, боевик, триллер, BDRip 1080p] Dub + DVO + Sub Rus, Eng + Original Eng

Ответить на тему
 
Автор Сообщение

user ®

Стаж: 7 лет 7 месяцев

Сообщений: 20008

Пост Пост: #1 от 13-Сен-2015 20:15

[Цитировать]

Дом мертвецов / Дом смерти / House of the Dead
Страна: Германия, Канада, США
Жанр: ужасы, боевик, триллер
Год выпуска: 2003
Продолжительность: 01:30:16
Перевод: Профессиональный (дублированный)
Перевод 2: Профессиональный (двухголосый закадровый)
Cубтитры: русские, английские
Оригинальная аудиодорожка: английский
Режиссер: Уве Болл / Uwe Boll
В ролях: Джонатан Черри, Тайрон Лейтсо, Клинт Ховард, Она Грауэр, Элли Корнелл, Уилл Сэндерсон, Энука Окума, Кира Клавелл, Соня Саломяа, Майкл Эклунд
Описание: Мрачный остров, проклятая земля, где стоит Дом мертвых — обитель зла. Никто еще не выбирался с острова живым, но об этом не подозревали друзья-студенты, решившие хорошо повеселиться на экзотической вечеринке, устроенной на этом острове.
Заложники острова смерти вступают в борьбу с силами тьмы. Только как убить зомби, если тот уже мертв?
Доп. информация: За основу взят релиз House.of.the.Dead.2003.1080p.BluRay.x264.DTS-FGT, к нему добавлены русские дорожки и субтитры.
Сэмпл: http://www.mediafire.com/watch/9mzygdjr3hjcvjy/Hous...S-FGT.sample.mkv
Тип релиза: BDRip 1080p
Контейнер: MKV
Видео: MPEG4 Video (H264) 1920x1080 23.976fps 13.3 Mbps [V: English [eng] (h264 high L4.1, yuv420p, 1920x1080) [default]]
Аудио: Dolby AC3 48000Hz 6ch 384kbps [A: Russian DUB [rus] (ac3, 48000 Hz, 5.1, 384 kb/s) [default]]
Аудио 2: Dolby AC3 48000Hz 6ch 384kbps [A: Russian DVO [rus] (ac3, 48000 Hz, 5.1, 384 kb/s)]
Аудио 3: DTS 48000Hz 6ch 1536kbps [A: English [eng] (dts, 48000 Hz, 5.1, 1536 kb/s)]
Формат субтитров: softsub (SRT)
MediaInfo
General
Unique ID : 208234374266826216679793508765592092484 (0x9CA87B4FB755BBA8811ACFD97E827F44)
Complete name : E:\Video\House.of.the.Dead.2003.1080p.BluRay.x264.DTS-FGT\House.of.the.Dead.2003.1080p.BluRay.x264.DTS-FGT.mkv
Format : Matroska
Format version : Version 4 / Version 2
File size : 10.0 GiB
Duration : 1h 30mn
Overall bit rate : 15.9 Mbps
Movie name : House.of.the.Dead.2003.1080p.BluRay.x264.DTS-FGT
Encoded date : UTC 2015-09-12 18:09:04
Writing application : mkvmerge v8.3.0 ('Over the Horizon') 64bit
Writing library : libebml v1.3.1 + libmatroska v1.4.2
DURATION : 01:29:42.000000000
NUMBER_OF_FRAMES : 727
NUMBER_OF_BYTES : 26419
_STATISTICS_WRITING_APP : mkvmerge v8.3.0 ('Over the Horizon') 64bit
_STATISTICS_WRITING_DATE_UTC : 2015-09-12 18:09:04
_STATISTICS_TAGS : BPS DURATION NUMBER_OF_FRAMES NUMBER_OF_BYTES
Video
ID : 1
Format : AVC
Format/Info : Advanced Video Codec
Format profile : High@L4.1
Format settings, CABAC : Yes
Format settings, ReFrames : 4 frames
Codec ID : V_MPEG4/ISO/AVC
Duration : 1h 30mn
Bit rate : 13.3 Mbps
Width : 1 920 pixels
Height : 1 080 pixels
Display aspect ratio : 16:9
Frame rate mode : Constant
Frame rate : 23.976 fps
Color space : YUV
Chroma subsampling : 4:2:0
Bit depth : 8 bits
Scan type : Progressive
Bits/(Pixel*Frame) : 0.268
Stream size : 8.39 GiB (84%)
Writing library : x264 core 142 r2431 ac76440
Encoding settings : cabac=1 / ref=4 / deblock=1:-3:-3 / analyse=0x3:0x133 / me=umh / subme=11 / psy=1 / psy_rd=1.10:0.25 / mixed_ref=1 / me_range=64 / chroma_me=1 / trellis=2 / 8x8dct=1 / cqm=0 / deadzone=21,11 / fast_pskip=0 / chroma_qp_offset=-4 / threads=12 / lookahead_threads=3 / sliced_threads=0 / nr=0 / decimate=1 / interlaced=0 / bluray_compat=0 / constrained_intra=0 / bframes=16 / b_pyramid=2 / b_adapt=2 / b_bias=0 / direct=3 / weightb=1 / open_gop=0 / weightp=2 / keyint=240 / keyint_min=23 / scenecut=40 / intra_refresh=0 / rc_lookahead=150 / rc=crf / mbtree=1 / crf=16.5 / qcomp=0.60 / qpmin=0 / qpmax=69 / qpstep=4 / vbv_maxrate=62500 / vbv_bufsize=78125 / crf_max=0.0 / nal_hrd=none / filler=0 / ip_ratio=1.40 / aq=2:0.90
Language : English
Default : Yes
Forced : No
DURATION : 01:30:15.744000000
NUMBER_OF_FRAMES : 129848
NUMBER_OF_BYTES : 9226435928
_STATISTICS_WRITING_APP : mkvmerge v8.3.0 ('Over the Horizon') 64bit
_STATISTICS_WRITING_DATE_UTC : 2015-09-12 18:09:04
_STATISTICS_TAGS : BPS DURATION NUMBER_OF_FRAMES NUMBER_OF_BYTES
Audio #1
ID : 2
Format : AC-3
Format/Info : Audio Coding 3
Mode extension : CM (complete main)
Format settings, Endianness : Big
Codec ID : A_AC3
Duration : 1h 30mn
Bit rate mode : Constant
Bit rate : 384 Kbps
Channel(s) : 6 channels
Channel positions : Front: L C R, Side: L R, LFE
Sampling rate : 48.0 KHz
Bit depth : 16 bits
Compression mode : Lossy
Stream size : 248 MiB (2%)
Title : Russian DUB
Language : Russian
Default : Yes
Forced : No
Audio #2
ID : 3
Format : AC-3
Format/Info : Audio Coding 3
Mode extension : CM (complete main)
Format settings, Endianness : Big
Codec ID : A_AC3
Duration : 1h 30mn
Bit rate mode : Constant
Bit rate : 384 Kbps
Channel(s) : 6 channels
Channel positions : Front: L C R, Side: L R, LFE
Sampling rate : 48.0 KHz
Bit depth : 16 bits
Compression mode : Lossy
Stream size : 248 MiB (2%)
Title : Russian DVO
Language : Russian
Default : No
Forced : No
Audio #3
ID : 4
Format : DTS
Format/Info : Digital Theater Systems
Mode : 16
Format settings, Endianness : Big
Codec ID : A_DTS
Duration : 1h 30mn
Bit rate mode : Constant
Bit rate : 1 509 Kbps
Channel(s) : 6 channels
Channel positions : Front: L C R, Side: L R, LFE
Sampling rate : 48.0 KHz
Bit depth : 24 bits
Compression mode : Lossy
Stream size : 974 MiB (9%)
Title : English
Language : English
Default : No
Forced : No
Text #1
ID : 5
Format : UTF-8
Codec ID : S_TEXT/UTF8
Codec ID/Info : UTF-8 Plain Text
Title : Russian subs
Language : Russian
Default : No
Forced : No
Text #2
ID : 6
Format : UTF-8
Codec ID : S_TEXT/UTF8
Codec ID/Info : UTF-8 Plain Text
Title : English subs
Language : English
Default : No
Forced : No
Menu
00:00:00.000 : en:Chapter 1
00:03:56.194 : en:Chapter 2
00:09:27.483 : en:Chapter 3
00:12:29.665 : en:Chapter 4
00:16:28.237 : en:Chapter 5
00:20:10.959 : en:Chapter 6
00:24:58.288 : en:Chapter 7
00:28:48.017 : en:Chapter 8
00:32:53.096 : en:Chapter 9
00:36:37.195 : en:Chapter 10
00:40:52.032 : en:Chapter 11
00:45:03.200 : en:Chapter 12
00:50:55.969 : en:Chapter 13
00:53:38.006 : en:Chapter 14
00:58:20.205 : en:Chapter 15
01:01:04.118 : en:Chapter 16
01:04:24.527 : en:Chapter 17
01:09:14.733 : en:Chapter 18
01:14:25.669 : en:Chapter 19
01:22:54.594 : en:Chapter 20
01:25:15.819 : en:Chapter 21
Скриншоты
Скачать

Скачать торрент!

Как скачивать? · Что такое торрент? · Рейтинг и ограничения

Сайт не распространяет и не хранит электронные версии произведений, а лишь предоставляет доступ к создаваемому пользователями каталогу ссылок на торрент-файлы, которые содержат только списки хеш-сумм

[Профиль] [ЛС]
Показать сообщения:    
Ответить на тему

Текущее время: Сегодня 00:24

Часовой пояс: GMT + 4



Вы не можете начинать темы
Вы не можете отвечать на сообщения
Вы не можете редактировать свои сообщения
Вы не можете удалять свои сообщения
Вы не можете голосовать в опросах
Вы не можете прикреплять файлы к сообщениям
Вы не можете скачивать файлы