За гранью смерти / Вне закона / Outside the law (Хорхе Монтеси / Jorge Montesi) [2002, США, боевик, WEB-DL 720p] MVO + DVO (НТВ+) + Sub Eng + Original Eng

Ответить на тему
 
Автор Сообщение

user ®

Стаж: 7 лет 7 месяцев

Сообщений: 20008

Пост Пост: #1 от 13-Сен-2015 20:15

[Цитировать]

За гранью смерти / Вне закона / Outside the law
Страна: США
Студия: Alexander / Enright & Associates
Жанр: боевик
Год выпуска: 2002
Продолжительность: 01:30:21
Перевод 1: Профессиональный (многоголосый закадровый)
Перевод 2: Профессиональный (двухголосый закадровый) НТВ+
Cубтитры: английские
Оригинальная аудиодорожка: английский
Режиссер: Хорхе Монтеси / Jorge Montesi
В ролях: Синтия Ротрок, Шимус Девер, Джессика Стир, Джефф Уинкотт, Стефен Махт, Дэн Лория, Брэд Гринквист, Дон Харви и др.
Описание: Еще вчера она была правительственным агентом. Сегодня она предана, очернена и преследуема. Единственный шанс спастись — успеть добраться до границы и исчезнуть за пределами страны. Но так ли легко это сделать, когда тебя ищут профессионалы?
А уж если за тебя возьмется наркомафия, переправляющая через фронтир горы «белой смерти», вообще пиши пропало! Кольцо сжимается, и в этой ситуации есть лишь один способ избежать смерти — самой стать ходячей смертью для своих врагов!
II Сэмпл II IMDB II
Доп. информация:
За многоголоску спасибо serg1972
За перевод НТВ+ спасибо edich2
Тип релиза: WEB-DL 720p
Контейнер: MKV
Видео: AVC / 1280x 720 / 16:9 / 23.976fps / Bit rate 3982Kbps
Аудио 1: AC3 / 48.0 KHz / 5ch. / 448kbps / rus / dvo
Аудио 1: AC3 / 48.0 KHz / 2ch. / 192kbps / rus / dvo / НТВ+
Аудио 2: AAC-LC / 48.0 KHz / 2ch. / 127kbps / eng
Формат субтитров: softsub (SRT)
MediaInfo
Общее
Уникальный идентификатор : 174908340212175208385607159592327458687 (0x83961EF9729C7390B4C64DB87D0A2F7F)
Полное имя : H:\!_Torrent\Outside.the.Law.2002.WEB-DL.720p.by_vedigo.mkv
Формат : Matroska
Версия формата : Version 4 / Version 2
Размер файла : 3,05 Гбайт
Продолжительность : 1 ч. 30 м.
Общий поток : 4827 Кбит/сек
Название фильма : Outside.the.Law.2002.WEB-DL.720p_by_vedigo
Дата кодирования : UTC 2015-09-12 22:40:21
Программа кодирования : mkvmerge v8.3.0 ('Over the Horizon') 64bit
Библиотека кодирования : libebml v1.3.1 + libmatroska v1.4.2
DURATION : 01:30:21.632000000
NUMBER_OF_FRAMES : 169426
NUMBER_OF_BYTES : 303611392
_STATISTICS_WRITING_APP : mkvmerge v8.3.0 ('Over the Horizon') 64bit
_STATISTICS_WRITING_DATE_UTC : 2015-09-12 22:40:21
_STATISTICS_TAGS : BPS DURATION NUMBER_OF_FRAMES NUMBER_OF_BYTES
Видео
Идентификатор : 1
Формат : AVC
Формат/Информация : Advanced Video Codec
Профиль формата : High@L3.1
Параметр CABAC формата : Нет
Параметр ReFrames формата : 2 кадра
Идентификатор кодека : V_MPEG4/ISO/AVC
Продолжительность : 1 ч. 30 м.
Ширина : 1280 пикселей
Высота : 720 пикселей
Соотношение сторон : 16:9
Режим частоты кадров : Постоянный
Частота кадров : 23,976 кадра/сек
Цветовое пространство : YUV
Субдискретизация насыщенности : 4:2:0
Битовая глубина : 8 бит
Тип развёртки : Прогрессивная
Заголовок : Outside.the.Law.2002.WEB-DL.720p_by_vedigo
Default : Да
Forced : Нет
Цветовой диапазон : Limited
Основные цвета : BT.709
Характеристики трансфера : BT.709
Коэффициенты матрицы : BT.709
Аудио #1
Идентификатор : 2
Формат : AC-3
Формат/Информация : Audio Coding 3
Расширение режима : CM (complete main)
Параметр Endianness формата : Big
Идентификатор кодека : A_AC3
Продолжительность : 1 ч. 30 м.
Вид битрейта : Постоянный
Битрейт : 448 Кбит/сек
Каналы : 5 каналов
Расположение каналов : Front: L C R, Side: L R
Частота : 48,0 КГц
Метод сжатия : С потерями
Размер потока : 290 Мбайт (9%)
Заголовок : MVO
Язык : Russian
Default : Да
Forced : Нет
Аудио #2
Идентификатор : 3
Формат : AC-3
Формат/Информация : Audio Coding 3
Расширение режима : CM (complete main)
Параметр Endianness формата : Big
Идентификатор кодека : A_AC3
Продолжительность : 1 ч. 30 м.
Вид битрейта : Постоянный
Битрейт : 192 Кбит/сек
Каналы : 2 канала
Расположение каналов : Front: L R
Частота : 48,0 КГц
Метод сжатия : С потерями
Размер потока : 124 Мбайт (4%)
Заголовок : DVO @ НТВ+
Язык : Russian
Default : Нет
Forced : Нет
Аудио #3
Идентификатор : 4
Формат : AAC
Формат/Информация : Advanced Audio Codec
Профиль формата : LC
Идентификатор кодека : A_AAC
Продолжительность : 1 ч. 30 м.
Каналы : 2 канала
Расположение каналов : Front: L R
Частота : 48,0 КГц
Метод сжатия : С потерями
Заголовок : original
Язык : English
Default : Нет
Forced : Нет
Текст
Идентификатор : 5
Формат : UTF-8
Идентификатор кодека : S_TEXT/UTF8
Идентификатор кодека/Информация : UTF-8 Plain Text
Заголовок : subtitle eng
Язык : English
Default : Нет
Forced : Нет
Меню
00:00:00.000 : en:Chapter 1
00:06:14.000 : en:Chapter 2
00:10:36.000 : en:Chapter 3
00:14:46.000 : en:Chapter 4
00:16:46.000 : en:Chapter 5
00:18:50.000 : en:Chapter 6
00:20:55.000 : en:Chapter 7
00:23:19.000 : en:Chapter 8
00:30:03.000 : en:Chapter 9
00:32:56.000 : en:Chapter 10
00:39:11.000 : en:Chapter 11
00:45:46.000 : en:Chapter 12
00:52:41.000 : en:Chapter 13
00:56:57.000 : en:Chapter 14
00:58:57.000 : en:Chapter 15
01:02:12.000 : en:Chapter 16
01:05:54.000 : en:Chapter 17
01:13:10.000 : en:Chapter 18
01:15:24.000 : en:Chapter 19
01:24:47.000 : en:Chapter 20
Скриншоты
Скачать

Скачать торрент!

Как скачивать? · Что такое торрент? · Рейтинг и ограничения

Сайт не распространяет и не хранит электронные версии произведений, а лишь предоставляет доступ к создаваемому пользователями каталогу ссылок на торрент-файлы, которые содержат только списки хеш-сумм

[Профиль] [ЛС]
Показать сообщения:    
Ответить на тему

Текущее время: Сегодня 19:55

Часовой пояс: GMT + 4



Вы не можете начинать темы
Вы не можете отвечать на сообщения
Вы не можете редактировать свои сообщения
Вы не можете удалять свои сообщения
Вы не можете голосовать в опросах
Вы не можете прикреплять файлы к сообщениям
Вы не можете скачивать файлы